<?xml version="1.0" standalone="no"?>
<!DOCTYPE svg PUBLIC "-//W3C//DTD SVG 1.1//EN" "http://www.w3.org/Graphics/SVG/1.1/DTD/svg11.dtd">
<svg xmlns="http://www.w3.org/2000/svg">
<defs >
<font id="NotoSansMono" horiz-adv-x="645" ><font-face
    font-family="Noto Sans Mono SemiBold"
    units-per-em="1000"
    panose-1="2 11 5 9 4 5 4 2 2 4"
    ascent="1069"
    descent="-293"
    alphabetic="0" />
<glyph unicode=" " horiz-adv-x="600" />
<glyph unicode="!" horiz-adv-x="600" d="M246 224L227 714H374L355 224H246ZM300 -10Q263 -10 242 10T220 70Q220 112 241 131T300 151Q337 151 358 131T379 70Q379 32 358 11T300 -10Z" />
<glyph unicode="&quot;" horiz-adv-x="600" d="M356 456L336 714H459L439 456H356ZM161 456L141 714H264L244 456H161Z" />
<glyph unicode="#" horiz-adv-x="600" d="M100 0L133 203H17V290H148L173 425H49V511H187L222 714H312L277 511H378L413 714H501L466 511H583V425H451L427 290H552V203H413L377 0H286L322 203H222L188 0H100ZM238 290H338L362 425H262L238 290Z" />
<glyph unicode="$" horiz-adv-x="600" d="M267 35Q214 36 167 45T84 72V181Q120 162 170 147T267 130V319Q203 342 162 368T101 428T81 510Q81 563 104 601T169 661T267 688V759H332V689Q380 688 423 678T505 649L471 554Q438 569 402 578T332 590V408Q390 388
432 365T497 308T520 221Q520 148 472 99T332 37V-58H267V35ZM332 136Q372 142 391 162T410 216Q410 237 402 250T377 274T332 295V136ZM267 589Q242 587 226 577T201 551T192 513Q192 494 199 480T223 454T267 433V589Z" />
<glyph unicode="%" horiz-adv-x="600" d="M68 0L430 714H525L164 0H68ZM456 -9Q393 -9 354 35T314 159Q314 241 352 285T457 330Q523 330 561 286T600 159Q600 79 562 35T456 -9ZM458 66Q484 66 497 89T511 159Q511 209 498 232T458 255Q429 255 416 232T403 159Q403
112 416 89T458 66ZM142 383Q79 383 40 427T0 551Q0 633 38 677T143 722Q209 722 247 678T286 551Q286 471 248 427T142 383ZM144 458Q170 458 183 481T197 551Q197 601 184 624T144 647Q115 647 102 624T89 551Q89 504 102 481T144 458Z" />
<glyph unicode="&amp;" horiz-adv-x="600" d="M220 -10Q158 -10 117 14T54 81T33 178Q33 230 53 272T110 350T197 424Q222 442 247 463T289 512T306 571Q306 604 292 620T253 637Q227 637 212 620T197 567Q197 536 207 508T232 458T257 421L583 0H445L181 355Q164
379 143 409T107 478T92 563Q92 637 134 680T248 724Q325 724 367 682T409 570Q409 527 389 488T334 413T255 342Q225 317 200 294T160 246T146 185Q146 148 168 120T233 92Q270 92 300 110T354 158T396 224T425 297T442 366H553Q545 311 527 257T481 155T414 69T327
11T220 -10Z" />
<glyph unicode="&apos;" horiz-adv-x="600" d="M258 456L238 714H361L341 456H258Z" />
<glyph unicode="(" horiz-adv-x="600" d="M337 -162Q265 -75 230 36T194 272Q194 398 230 511T337 714H442Q374 619 340 507T306 273Q306 155 341 44T441 -162H337Z" />
<glyph unicode=")" horiz-adv-x="600" d="M263 714Q335 627 370 516T406 280Q406 153 370 40T263 -162H158Q226 -68 260 45T294 279Q294 396 260 507T159 714H263Z" />
<glyph unicode="*" horiz-adv-x="600" d="M378 326L299 474L222 327L135 380L236 510L81 531L101 624L262 583L249 752H351L338 582L501 627L520 528L366 510L467 380L378 326Z" />
<glyph unicode="+" horiz-adv-x="600" d="M254 119V306H74V399H254V589H348V399H526V306H348V119H254Z" />
<glyph unicode="," horiz-adv-x="600" d="M200 -150Q211 -106 221 -55T240 46T254 133H380L387 122Q381 95 371 62T349 -8T324 -81T295 -150H200Z" />
<glyph unicode="-" horiz-adv-x="600" d="M150 214V322H450V214H150Z" />
<glyph unicode="." horiz-adv-x="600" d="M300 -10Q263 -10 242 10T220 70Q220 112 241 131T300 151Q337 151 358 131T379 70Q379 32 358 11T300 -10Z" />
<glyph unicode="/" horiz-adv-x="600" d="M108 -2L382 716H492L218 -2H108Z" />
<glyph unicode="0" horiz-adv-x="600" d="M301 -10Q216 -10 161 33T80 159T54 360Q54 478 79 559T159 682T298 724Q384 724 439 681T520 556T546 354Q546 272 533 205T492 90T416 16T301 -10ZM195 104L125 164L393 612L459 541L195 104ZM299 93Q369 93 398 157T427
353Q427 437 415 496T375 587T299 619Q253 619 226 589T186 501T173 354Q173 225 201 159T299 93Z" />
<glyph unicode="1" horiz-adv-x="600" d="M263 425Q263 452 263 479T265 532T267 580Q252 571 238 564T208 547L134 508L79 606L285 714H386V0H263V425ZM121 0V86L264 99H386L526 86V0H121Z" />
<glyph unicode="2" horiz-adv-x="600" d="M62 0V94L242 273Q287 318 322 357T377 434T397 514Q397 565 369 590T294 616Q251 616 213 598T133 545L63 629Q98 659 132 680T208 712T302 724Q371 724 421 699T498 630T525 526Q525 466 500 415T433 318T338 222L223
115V107H551V0H62Z" />
<glyph unicode="3" horiz-adv-x="600" d="M268 -10Q222 -10 171 -1T72 29V141Q116 119 167 108T264 96Q336 96 370 126T405 210Q405 250 387 273T332 306T238 317H177V419H239Q290 419 323 432T373 469T390 528Q390 567 366 592T289 617Q250 617 211 603T129 565L72
653Q117 685 174 704T296 724Q357 724 405 705T482 647T510 551Q510 507 493 471T444 411T367 376V373Q423 365 459 344T513 287T531 204Q531 134 499 86T408 14T268 -10Z" />
<glyph unicode="4" horiz-adv-x="600" d="M341 0V153H44V246L337 716H460V254H556V153H460V0H341ZM159 254H341V397Q341 414 342 440T344 493T346 541T348 572H344Q336 552 324 531T301 490L159 254Z" />
<glyph unicode="5" horiz-adv-x="600" d="M255 -10Q209 -10 161 0T78 29V142Q118 120 163 109T253 98Q321 98 357 127T393 219Q393 265 375 293T325 334T255 348Q227 348 197 344T145 331L91 361L118 714H483V607H228L214 439Q237 444 260 446T301 448Q364 448
414 423T493 349T523 227Q523 151 489 98T395 18T255 -10Z" />
<glyph unicode="6" horiz-adv-x="600" d="M309 -11Q251 -11 205 10T126 72T75 175T57 319Q57 409 75 483T135 610T242 693T404 723Q425 723 449 721T490 715V610Q470 615 448 618T401 621Q342 621 301 604T234 555T195 477T177 375H183Q198 401 220 420T272 449T341
459Q438 459 490 400T543 235Q543 160 515 105T435 19T309 -11ZM306 97Q359 97 389 130T420 234Q420 295 393 328T309 361Q274 361 246 345T201 301T184 236Q184 214 189 194T204 155T229 125T263 105T306 97Z" />
<glyph unicode="7" horiz-adv-x="600" d="M142 0L412 607H54V713H546V627L276 0H142Z" />
<glyph unicode="8" horiz-adv-x="600" d="M298 -10Q229 -10 176 11T93 75T62 180Q62 225 78 260T124 324T197 373Q161 397 136 424T98 483T85 553Q85 609 114 647T193 704T300 723Q359 723 408 704T486 647T515 552Q515 493 483 451T390 377Q438 352 470 323T520
259T537 183Q537 123 506 80T421 14T298 -10ZM298 90Q357 90 387 117T417 187Q417 215 404 236T362 278T291 322Q256 305 232 285T196 241T183 186Q183 143 212 117T298 90ZM300 430Q331 445 351 461T383 497T394 543Q394 581 368 601T299 622Q257 622 232 601T206
543Q206 515 218 495T252 459T300 430Z" />
<glyph unicode="9" horiz-adv-x="600" d="M198 -10Q176 -10 153 -8T113 -2V103Q133 98 155 95T201 92Q260 92 301 110T367 160T406 238T422 338H416Q402 312 380 293T328 265T259 255Q163 255 110 314T57 479Q57 555 85 610T166 695T292 725Q349 725 395 705T474
643T525 539T543 393Q543 323 532 262T495 150T429 64T331 10T198 -10ZM289 353Q325 353 353 368T399 412T416 478Q416 505 408 530T385 574T347 605T294 617Q240 617 210 583T180 480Q180 417 208 385T289 353Z" />
<glyph unicode=":" horiz-adv-x="600" d="M300 391Q264 391 242 411T220 472Q220 514 241 533T300 552Q337 552 358 532T379 472Q379 433 358 412T300 391ZM300 -10Q263 -10 242 10T220 70Q220 112 241 131T300 151Q337 151 358 131T379 70Q379 32 358 11T300 -10Z" />
<glyph unicode=";" horiz-adv-x="600" d="M200 -150Q211 -106 221 -55T240 46T254 133H380L387 122Q381 95 371 62T349 -8T324 -81T295 -150H200ZM322 391Q286 391 264 411T242 472Q242 514 263 533T322 552Q359 552 380 532T402 472Q402 433 380 412T322 391Z" />
<glyph unicode="&lt;" horiz-adv-x="600" d="M513 112L87 321V383L513 610V507L217 354L513 215V112Z" />
<glyph unicode="=" horiz-adv-x="600" d="M70 395V500H530V395H70ZM70 193V298H530V193H70Z" />
<glyph unicode="&gt;" horiz-adv-x="600" d="M87 112V215L383 354L87 507V610L513 383V321L87 112Z" />
<glyph unicode="?" horiz-adv-x="600" d="M216 253Q216 289 225 316T256 366T312 414Q340 435 358 453T386 492T396 541Q396 578 370 599T296 620Q255 620 215 608T129 573L84 668Q135 694 186 709T301 724Q364 724 412 704T488 644T516 548Q516 503 505 472T468
415T404 360Q375 338 358 322T333 289T325 245V224H216V253ZM273 -10Q236 -10 215 10T193 70Q193 112 214 131T273 151Q310 151 331 131T352 70Q352 32 331 11T273 -10Z" />
<glyph unicode="@" horiz-adv-x="600" d="M322 -89Q222 -89 151 -43T43 87T6 287Q6 379 27 456T88 592T188 682T323 714Q405 714 465 671T560 549T594 362Q594 312 586 267T561 186T519 129T459 108Q427 108 408 128T379 177H377Q363 149 338 129T276 108Q217
108 185 160T152 298Q152 363 172 413T229 491T318 520Q353 520 387 512T446 495L436 295Q435 288 435 280T435 262Q434 217 442 202T463 187Q478 187 488 210T503 273T509 361Q509 498 457 568T323 638Q249 638 198 594T120 472T93 292Q93 196 119 128T195 24T320
-12Q368 -12 413 -1T496 28V-49Q460 -68 417 -78T322 -89ZM289 187Q319 187 332 226T348 325L354 434Q347 437 338 439T319 441Q290 441 273 420T249 366T241 296Q241 238 253 213T289 187Z" />
<glyph unicode="A" horiz-adv-x="600" d="M14 0L224 717H375L586 0H461L330 488Q326 507 321 527T310 569T300 613Q295 591 290 569T280 527T269 488L136 0H14ZM163 193L193 298H407L425 193H163Z" />
<glyph unicode="B" horiz-adv-x="600" d="M86 0V714H297Q412 714 474 674T537 539Q537 472 507 431T423 379V374Q461 366 490 347T537 294T554 208Q554 143 527 97T448 25T323 0H86ZM308 104Q375 104 400 133T426 213Q426 247 415 270T377 306T303 319H202V104H308ZM299
425Q361 425 386 448T412 519Q412 568 385 589T291 610H202V425H299Z" />
<glyph unicode="C" horiz-adv-x="600" d="M356 -10Q253 -10 187 35T88 160T56 348Q56 435 77 504T140 623T241 698T381 724Q433 724 474 714T556 683L514 581Q479 599 445 607T378 615Q326 615 289 597T228 545T194 461T182 351Q182 270 202 214T263 129T372 100Q407
100 444 108T527 137V24Q485 6 443 -2T356 -10Z" />
<glyph unicode="D" horiz-adv-x="600" d="M54 0V714H257Q351 714 420 675T526 557T564 363Q564 245 526 164T415 42T243 0H54ZM235 106Q340 106 389 170T438 362Q438 447 416 501T353 582T249 608H177V106H235Z" />
<glyph unicode="E" horiz-adv-x="600" d="M86 0V714H524V606H207V425H508V317H207V108H524V0H86Z" />
<glyph unicode="F" horiz-adv-x="600" d="M86 0V714H524V606H207V395H508V287H207V0H86Z" />
<glyph unicode="G" horiz-adv-x="600" d="M342 -10Q240 -10 172 32T70 155T36 348Q36 467 72 550T179 679T353 724Q407 724 453 713T539 681L499 580Q470 597 436 606T363 616Q295 616 250 585T183 494T161 351Q161 276 179 219T239 129T345 97Q371 97 392 100T431
109V288H320V393H546V29Q499 10 450 0T342 -10Z" />
<glyph unicode="H" horiz-adv-x="600" d="M54 0V714H179V427H421V714H546V0H421V319H179V0H54Z" />
<glyph unicode="I" horiz-adv-x="600" d="M98 0V86L238 101V613L98 628V714H502V628L359 613V101L502 86V0H98Z" />
<glyph unicode="J" horiz-adv-x="600" d="M241 -10Q205 -10 165 -4T91 14V123Q129 113 168 107T236 100Q276 100 303 114T344 158T358 239V714H481V235Q481 156 455 101T377 18T241 -10Z" />
<glyph unicode="K" horiz-adv-x="600" d="M54 0V714H177V356Q193 386 209 412T245 465L419 714H557L326 393L556 0H418L245 306L177 236V0H54Z" />
<glyph unicode="L" horiz-adv-x="600" d="M99 0V714H224V111H524V0H99Z" />
<glyph unicode="M" horiz-adv-x="600" d="M44 0V714H215L297 304H301L391 714H556V0H443V247Q443 275 444 307T446 375T450 443T453 507T457 560T460 598H455L360 172H241L141 599H136Q137 585 139 562T143 508T148 444T153 374T156 305T157 242V0H44Z" />
<glyph unicode="N" horiz-adv-x="600" d="M54 0V714H222L437 131H440Q438 164 437 194T434 252T433 303T432 348V714H546V0H381L160 596H156Q158 563 160 532T164 471T167 417T168 372V0H54Z" />
<glyph unicode="O" horiz-adv-x="600" d="M300 -10Q231 -10 181 15T99 89T52 205T36 358Q36 471 64 554T150 681T300 726Q369 726 419 701T501 627T548 511T564 358Q564 273 549 205T501 89T419 16T300 -10ZM300 98Q350 98 380 128T424 216T438 359Q438 484 407
551T301 618Q251 618 221 588T176 500T162 358Q162 274 176 216T220 128T300 98Z" />
<glyph unicode="P" horiz-adv-x="600" d="M86 0V714H310Q435 714 494 658T554 497Q554 430 529 377T448 293T300 262H207V0H86ZM287 368Q335 368 366 381T414 422T430 491Q430 552 400 580T304 608H207V368H287Z" />
<glyph unicode="Q" horiz-adv-x="600" d="M414 -180L310 27L401 93L547 -180H414ZM300 -10Q231 -10 181 15T99 89T52 205T36 358Q36 471 64 554T150 681T300 726Q369 726 419 701T501 627T548 511T564 358Q564 273 549 205T501 89T419 16T300 -10ZM300 98Q350
98 380 128T424 216T438 359Q438 484 407 551T301 618Q251 618 221 588T176 500T162 358Q162 274 176 216T220 128T300 98Z" />
<glyph unicode="R" horiz-adv-x="600" d="M86 0V714H268Q352 714 409 690T495 619T524 505Q524 454 508 416T464 351T398 308L579 0H445L288 278H210V0H86ZM265 384Q311 384 340 397T383 435T398 500Q398 560 365 584T262 608H210V384H265Z" />
<glyph unicode="S" horiz-adv-x="600" d="M277 -10Q222 -10 169 0T76 31V144Q124 121 176 108T281 94Q322 94 351 104T396 135T412 191Q412 224 396 243T346 279T259 322Q215 344 176 371T114 437T90 534Q90 597 119 639T200 702T322 724Q369 724 423 714T526
680L486 582Q443 601 402 610T326 619Q292 619 268 610T230 580T217 529Q217 498 231 479T275 444T350 406Q409 379 451 353T516 290T539 196Q539 145 521 107T469 43T387 3T277 -10Z" />
<glyph unicode="T" horiz-adv-x="600" d="M238 0V606H36V714H564V606H362V0H238Z" />
<glyph unicode="U" horiz-adv-x="600" d="M298 -10Q215 -10 161 20T81 109T54 247V714H179V265Q179 209 191 172T230 116T300 98Q346 98 372 117T410 173T421 266V714H546V247Q546 171 520 113T439 23T298 -10Z" />
<glyph unicode="V" horiz-adv-x="600" d="M233 0L16 714H142L262 275Q269 254 276 225T289 166T299 114H306Q310 137 315 166T328 224T340 276L456 714H584L369 0H233Z" />
<glyph unicode="W" horiz-adv-x="600" d="M79 0L16 714H125Q134 632 139 572T147 467T151 387T155 317Q156 296 157 274T159 229T160 185T161 145T161 112H167Q170 136 174 164T183 220T192 273T200 314L242 542H360L402 313Q407 290 412 264T422 211T431 159T439
112H444Q444 129 444 150T444 195T444 244T446 293T448 340Q449 361 450 386T454 441T459 509T466 598T475 714H584L526 0H377L325 276Q321 299 317 324T309 373T303 417H299Q297 397 294 373T286 324T277 276L226 0H79Z" />
<glyph unicode="X" horiz-adv-x="600" d="M26 0L243 368L40 714H169L300 471L431 714H560L357 369L574 0H444L300 266L154 0H26Z" />
<glyph unicode="Y" horiz-adv-x="600" d="M239 0V277L26 714H158L301 389L443 714H574L362 277V0H239Z" />
<glyph unicode="Z" horiz-adv-x="600" d="M86 0V88L383 608H109V714H519V626L221 108H521V0H86Z" />
<glyph unicode="[" horiz-adv-x="600" d="M234 -160V718H468V628H343V-69H468V-160H234Z" />
<glyph unicode="\" horiz-adv-x="600" d="M492 -2H382L108 716H218L492 -2Z" />
<glyph unicode="]" horiz-adv-x="600" d="M366 718V-160H132V-70H257V627H132V718H366Z" />
<glyph unicode="^" horiz-adv-x="600" d="M44 266L260 717H322L556 266H453L292 581L147 266H44Z" />
<glyph unicode="_" horiz-adv-x="600" d="M0 -175V-70H600V-175H0Z" />
<glyph unicode="`" horiz-adv-x="600" d="M310 606Q293 619 272 638T228 680T186 722T156 757V766H294Q306 745 323 717T359 663T392 619V606H310Z" />
<glyph unicode="a" horiz-adv-x="600" d="M232 -10Q148 -10 103 33T58 154Q58 214 84 252T163 310T291 332L409 335V358Q409 409 379 430T291 452Q253 452 214 443T133 416L92 505Q136 527 186 539T296 552Q406 552 466 506T526 362V0H430L412 71H408Q384 42 357
25T298 -1T232 -10ZM269 89Q307 89 339 103T390 144T409 210V256L321 254Q272 253 240 242T193 212T177 163Q177 123 203 106T269 89Z" />
<glyph unicode="b" horiz-adv-x="600" d="M345 -10Q294 -10 253 10T185 63H177L160 0H64V760H186V580Q186 560 185 533T180 472H186Q210 509 251 530T346 552Q398 552 437 532T502 475T541 386T554 273Q554 209 541 157T501 68T435 11T345 -10ZM308 92Q368 92
398 138T428 273Q428 362 398 406T307 450Q251 450 219 408T186 274Q186 183 217 138T308 92Z" />
<glyph unicode="c" horiz-adv-x="600" d="M339 -10Q252 -10 194 20T106 111T76 265Q76 363 107 426T199 521T345 552Q388 552 431 544T514 517L478 418Q441 434 409 440T352 446Q301 446 268 427T218 368T202 269Q202 208 219 170T269 114T352 96Q388 96 426 105T501
136V25Q463 6 423 -2T339 -10Z" />
<glyph unicode="d" horiz-adv-x="600" d="M255 -10Q203 -10 164 10T99 67T59 156T46 272Q46 357 69 419T142 517T265 552Q301 552 329 543T380 516T417 473H423Q420 490 418 507T415 542T414 578V760H536V0H439L417 71H411Q395 46 372 28T320 0T255 -10ZM297 92Q359
92 389 133T420 252V269Q420 322 410 362T373 426T301 450Q237 450 205 404T172 265Q172 177 203 135T297 92Z" />
<glyph unicode="e" horiz-adv-x="600" d="M346 -10Q253 -10 188 22T89 118T54 272Q54 358 84 421T173 518T310 552Q385 552 437 522T518 435T546 299V239H176Q178 187 201 155T264 107T353 92Q394 92 437 102T527 132V29Q482 7 436 -1T346 -10ZM431 327Q431 368
416 396T374 440T312 456Q258 456 222 422T179 327H431Z" />
<glyph unicode="f" horiz-adv-x="600" d="M224 0V439H67V519L224 542V587Q224 651 247 690T316 747T427 765Q468 765 506 759T576 743L545 646Q522 653 495 656T447 660Q398 660 373 640T348 573V542H534V439H348V0H224Z" />
<glyph unicode="g" horiz-adv-x="600" d="M266 -245Q219 -245 172 -237T80 -211V-96Q126 -118 176 -129T271 -139Q348 -139 380 -107T413 -10V4Q413 19 414 33T417 65H413Q385 25 347 8T260 -10Q159 -10 103 64T46 270Q46 403 102 478T257 553Q308 553 346 534T412
474H417L440 542H536V-6Q536 -83 507 -136T418 -217T266 -245ZM299 92Q330 92 352 102T390 133T412 182T420 250V269Q420 334 407 373T365 431T296 450Q231 450 202 404T172 271Q172 184 203 138T299 92Z" />
<glyph unicode="h" horiz-adv-x="600" d="M64 0V760H189V582Q189 555 188 524T185 466H192Q209 495 232 514T285 542T352 552Q441 552 491 503T541 354V0H416V324Q416 393 389 421T314 450Q273 450 245 430T203 369T189 265V0H64Z" />
<glyph unicode="i" horiz-adv-x="600" d="M68 0V79L253 103V439L90 455V542H377V103L546 79V0H68ZM312 617Q275 617 255 636T234 694Q234 731 254 750T313 770Q350 770 371 751T392 694Q392 657 371 637T312 617Z" />
<glyph unicode="j" horiz-adv-x="600" d="M194 -245Q160 -245 121 -240T48 -225V-118Q69 -124 92 -128T137 -135T177 -138Q219 -138 244 -125T281 -84T293 -8V439L130 455V542H417V-31Q417 -139 361 -192T194 -245ZM344 617Q307 617 287 636T266 694Q266 731 286
750T345 770Q382 770 403 751T424 695Q424 657 403 637T344 617Z" />
<glyph unicode="k" horiz-adv-x="600" d="M77 0V760H201V403Q201 383 200 362T198 319T194 275H196Q211 298 228 319T264 363L421 542H566L361 314L579 0H443L282 236L201 168V0H77Z" />
<glyph unicode="l" horiz-adv-x="600" d="M68 0V79L254 103V657L92 681V760H378V103L546 79V0H68Z" />
<glyph unicode="m" horiz-adv-x="600" d="M38 0V542H122L137 478H144Q155 505 169 521T201 544T244 552Q287 552 309 531T342 467H346Q364 508 389 530T457 552Q499 552 522 530T554 464T563 353V0H455V366Q455 392 452 410T440 438T412 448Q392 448 380 435T361
393T355 321V0H246V366Q246 392 243 410T229 438T200 448Q180 448 168 434T151 392T146 321V0H38Z" />
<glyph unicode="n" horiz-adv-x="600" d="M64 0V542H160L180 469H187Q203 497 228 515T285 543T356 552Q443 552 492 503T541 357V0H416V328Q416 391 391 420T315 450Q247 450 218 401T189 264V0H64Z" />
<glyph unicode="o" horiz-adv-x="600" d="M300 -10Q243 -10 196 9T115 64T64 152T46 271Q46 360 77 423T166 519T300 552Q376 552 433 520T522 425T554 271Q554 205 537 153T487 65T407 9T300 -10ZM301 90Q345 90 373 112T414 175T428 271Q428 327 415 367T373
430T301 452Q235 452 203 404T171 271Q171 216 185 176T229 113T301 90Z" />
<glyph unicode="p" horiz-adv-x="600" d="M64 -240V542H161L181 470H186Q204 497 227 515T281 542T347 552Q399 552 437 532T502 475T541 386T554 272Q554 182 529 119T456 23T344 -10Q311 -10 281 -1T228 24T186 63H180Q184 35 185 15T186 -16V-240H64ZM309 92Q370
92 398 136T426 274Q426 362 398 406T308 450Q248 450 217 409T186 290V273Q186 184 216 138T309 92Z" />
<glyph unicode="q" horiz-adv-x="600" d="M414 -11Q414 0 414 13T416 41T418 71H414Q392 36 351 13T254 -10Q203 -10 164 10T99 67T60 156T46 270Q46 333 59 384T99 473T165 531T258 552Q310 552 350 531T417 471H422L440 542H536V-240H414V-11ZM296 92Q359 92
388 134T418 251V269Q418 360 388 405T295 450Q232 450 203 404T174 269Q174 185 203 139T296 92Z" />
<glyph unicode="r" horiz-adv-x="600" d="M49 0V79L199 103V439L72 455V542H295L312 448H318Q345 497 382 524T479 552Q502 552 528 548T579 533L546 419Q531 426 510 431T464 436Q419 436 388 413T340 351T323 265V103L471 79V0H49Z" />
<glyph unicode="s" horiz-adv-x="600" d="M275 -10Q225 -10 179 -2T89 23V138Q129 120 179 107T287 93Q336 93 360 107T384 149Q384 169 371 181T330 205T256 236Q208 256 172 276T116 324T95 399Q95 452 122 486T198 536T312 552Q362 552 410 543T507 513L469
417Q425 434 387 442T309 450Q265 450 243 439T220 403Q220 383 233 370T274 346T344 319Q392 300 429 281T489 231T511 149Q511 95 484 60T405 8T275 -10Z" />
<glyph unicode="t" horiz-adv-x="600" d="M395 -10Q330 -10 284 8T212 68T187 179V439H54V519L194 543L216 681H311V542H518V439H311V194Q311 155 323 133T359 102T415 93Q440 93 466 97T527 108V10Q494 0 461 -5T395 -10Z" />
<glyph unicode="u" horiz-adv-x="600" d="M244 -10Q154 -10 107 40T59 186V542H184V214Q184 156 205 124T283 92Q334 92 361 114T400 179T411 278V542H536V0H440L420 71H413Q396 44 371 26T314 -1T244 -10Z" />
<glyph unicode="v" horiz-adv-x="600" d="M231 0L29 542H161L265 229Q275 198 284 168T300 105H303Q310 137 318 166T337 228L439 542H570L368 0H231Z" />
<glyph unicode="w" horiz-adv-x="600" d="M88 0L8 542H122L152 267Q156 240 158 217T162 167T167 106H171Q174 132 178 157T187 209T199 261L243 454H358L401 261Q407 238 412 211T423 158T432 106H435Q438 139 440 165T444 215T450 267L481 542H593L512 0H368L327
203Q319 239 313 268T302 327H298Q292 296 286 268T272 203L229 0H88Z" />
<glyph unicode="x" horiz-adv-x="600" d="M29 0L226 276L39 542H185L301 359L420 542H567L377 276L570 0H424L302 192L176 0H29Z" />
<glyph unicode="y" horiz-adv-x="600" d="M134 -245Q115 -245 97 -243T61 -237V-134Q74 -136 89 -138T116 -140Q147 -140 168 -129T205 -97T232 -44L248 1L29 542H161L275 228Q284 204 292 175T307 115H310Q314 136 319 155T330 192T341 228L438 542H570L355 -44Q331
-110 302 -155T232 -222T134 -245Z" />
<glyph unicode="z" horiz-adv-x="600" d="M74 0V78L366 445H90V542H517V455L230 100H526V0H74Z" />
<glyph unicode="{" horiz-adv-x="600" d="M462 -160Q388 -160 343 -145T276 -95T255 -7V140Q255 187 226 208T138 230V326Q195 327 225 348T255 416V563Q255 616 275 650T342 700T462 716V623Q432 622 411 615T378 591T366 544V400Q366 349 340 320T261 281V275Q315
267 340 238T366 158V12Q366 -31 390 -48T462 -67V-160Z" />
<glyph unicode="|" horiz-adv-x="600" d="M252 -240V760H348V-240H252Z" />
<glyph unicode="}" horiz-adv-x="600" d="M138 716Q213 716 258 701T324 652T345 563V416Q345 369 374 348T462 326V230Q405 229 375 209T345 140V-7Q345 -60 325 -94T259 -144T138 -160V-67Q169 -66 190 -59T222 -34T234 12V156Q234 207 260 236T339 275V281Q286
289 260 318T234 398V544Q234 587 210 604T138 623V716Z" />
<glyph unicode="~" horiz-adv-x="600" d="M69 277Q70 310 76 343T97 402T135 445T197 461Q221 461 240 454T279 433T324 394Q351 368 367 357T402 345Q429 345 442 374T460 461H529Q527 426 520 394T499 335T461 293T403 277Q381 277 361 284T322 305T278 341Q248
370 233 381T198 393Q169 393 154 365T137 277H69Z" />
<glyph unicode="&#xa0;" horiz-adv-x="600" />
<glyph unicode="&#xa1;" horiz-adv-x="600" d="M354 305L373 -185H226L245 305H354ZM300 539Q337 539 358 519T380 459Q380 418 359 398T300 378Q264 378 243 398T221 459Q221 498 242 518T300 539Z" />
<glyph unicode="&#xa2;" horiz-adv-x="600" d="M297 88Q228 96 179 128T105 218T78 362Q79 449 105 508T181 600T297 642V724H373V646Q416 644 456 635T522 613L488 517Q461 530 425 538T356 546Q304 546 269 527T215 467T197 363Q197 301 215 262T269 204T354
185Q398 185 438 195T510 221V118Q485 105 449 96T373 85V-10H297V88Z" />
<glyph unicode="&#xa3;" horiz-adv-x="600" d="M84 101Q110 112 128 127T157 168T167 232V316H85V405H167V525Q167 625 222 674T366 724Q412 724 451 714T526 683L489 589Q459 605 433 613T376 621Q339 621 313 598T287 522V405H455V316H287V233Q287 204 278 179T254
136T221 107H534V0H84V101Z" />
<glyph unicode="&#xa4;" horiz-adv-x="600" d="M407 198Q383 184 356 176T300 167Q269 167 242 175T191 198L126 134L65 194L131 259Q115 283 107 310T98 367Q98 397 106 424T131 474L64 542L126 602L191 537Q214 553 242 561T300 569Q329 569 355 561T407 536L474
602L536 543L469 475Q484 453 493 425T502 367Q502 337 494 310T469 258L533 193L474 133L407 198ZM300 256Q332 256 358 269T398 308T413 367Q413 402 399 427T360 467T300 481Q267 481 242 467T202 427T188 367Q188 333 203 308T243 269T300 256Z" />
<glyph unicode="&#xa5;" horiz-adv-x="600" d="M241 0V118H97V195H241V269H97V347H214L29 714H155L300 404L445 714H571L383 347H503V269H358V195H503V118H358V0H241Z" />
<glyph unicode="&#xa6;" horiz-adv-x="600" d="M251 368V759H348V368H251ZM251 -234V157H348V-234H251Z" />
<glyph unicode="&#xa7;" horiz-adv-x="600" d="M276 -10Q222 -10 180 -1T105 27V118Q129 106 158 95T218 78T276 71Q333 71 356 89T380 134Q380 153 372 166T341 194T269 228Q217 250 181 271T127 321T109 389Q109 435 132 466T187 514Q152 535 133 564T114 631Q114
693 167 729T313 765Q365 765 406 755T487 728L451 647Q418 663 385 673T312 683Q267 683 246 670T224 631Q224 615 235 601T270 575T335 546Q386 526 422 504T476 452T495 382Q495 338 475 307T423 257Q456 236 473 207T491 141Q491 71 434 31T276 -10ZM346 294Q364
306 378 324T393 369Q393 391 382 408T344 442T264 476Q243 469 227 450T210 405Q210 385 221 368T258 336T324 304L346 294Z" />
<glyph unicode="&#xa8;" horiz-adv-x="600" d="M417 615Q390 615 371 632T352 683Q352 718 371 734T417 750Q445 750 464 734T484 683Q484 649 465 632T417 615ZM185 615Q158 615 140 632T121 683Q121 718 139 734T185 750Q213 750 232 734T252 683Q252 649 233
632T185 615Z" />
<glyph unicode="&#xa9;" horiz-adv-x="600" d="M299 87Q213 87 154 123T64 219T33 353Q33 430 66 490T159 585T301 620Q383 620 442 585T534 490T567 352Q567 273 533 214T439 121T299 87ZM311 188Q237 188 199 232T160 352Q160 429 199 474T312 520Q335 520 358
515T404 498L381 441Q364 451 347 455T314 460Q276 460 254 432T232 350Q232 300 252 274T314 248Q332 248 352 252T392 264V204Q374 197 355 193T311 188ZM299 145Q360 145 405 171T476 244T502 354Q502 418 477 464T406 535T300 561Q237 561 192 534T122 460T98
354Q98 294 122 247T191 173T299 145Z" />
<glyph unicode="&#xaa;" horiz-adv-x="600" d="M256 374Q207 374 177 400T146 476Q146 515 165 538T221 573T312 587L363 589V603Q363 631 345 643T297 656Q274 656 249 650T200 631L172 689Q200 704 234 713T308 722Q378 722 411 690T445 598V380H388L374 429Q353
403 324 389T256 374ZM280 438Q319 438 341 460T363 517V537L315 534Q264 531 247 516T230 480Q230 457 243 448T280 438Z" />
<glyph unicode="&#xab;" horiz-adv-x="600" d="M445 50L277 263V277L445 491L529 442L404 270L529 99L445 50ZM238 50L71 263V277L238 491L322 441L196 270L322 99L238 50Z" />
<glyph unicode="&#xac;" horiz-adv-x="600" d="M425 123V306H72V399H518V123H425Z" />
<glyph unicode="&#xad;" horiz-adv-x="600" d="M150 214V322H450V214H150Z" />
<glyph unicode="&#xae;" horiz-adv-x="600" d="M299 88Q214 88 155 124T64 220T33 354Q33 431 66 490T159 585T301 620Q383 620 442 585T534 490T567 352Q567 273 533 214T439 121T299 88ZM299 146Q360 146 405 172T476 245T502 355Q502 418 477 464T406 535T300
561Q237 561 192 534T123 460T98 354Q98 294 122 248T191 174T299 146ZM199 200V513H293Q353 513 382 490T412 419Q412 384 397 364T361 333L428 200H357L302 320H263V200H199ZM290 368Q315 368 329 380T344 417Q344 440 332 450T291 461H263V368H290Z" />
<glyph unicode="&#xaf;" horiz-adv-x="600" d="M150 620V709H451V620H150Z" />
<glyph unicode="&#xb0;" horiz-adv-x="600" d="M300 414Q255 414 220 434T164 490T144 569Q144 613 165 648T221 703T300 724Q344 724 379 704T436 648T457 569Q457 525 438 490T383 435T300 414ZM301 489Q336 489 357 511T378 569Q378 605 356 626T301 648Q268
648 246 627T223 569Q223 534 245 512T301 489Z" />
<glyph unicode="&#xb1;" horiz-adv-x="600" d="M253 143V331H74V423H253V612H347V423H526V331H347V143H253ZM74 0V93H526V0H74Z" />
<glyph unicode="&#xb2;" horiz-adv-x="600" d="M154 416V488L253 584Q284 613 305 635T338 677T350 723Q350 752 334 764T292 777Q266 777 244 766T198 734L154 794Q181 820 218 837T303 854Q365 854 402 824T439 731Q439 691 424 663T381 606T314 541L264 494H458V416H154Z"
/>
<glyph unicode="&#xb3;" horiz-adv-x="600" d="M281 408Q246 408 214 415T153 438V520Q183 502 215 492T282 482Q321 482 339 497T358 541Q358 570 337 585T271 601H219V669H266Q311 669 329 686T347 729Q347 753 332 766T290 780Q266 780 243 771T195 742L153
801Q182 825 217 839T298 853Q361 853 398 823T435 743Q435 706 416 681T362 642V637Q404 629 426 602T448 533Q448 477 406 443T281 408Z" />
<glyph unicode="&#xb4;" horiz-adv-x="600" d="M232 619Q248 640 266 665T301 717T329 766H468V757Q453 738 426 710T368 654T313 606H232V619Z" />
<glyph unicode="&#xb5;" horiz-adv-x="600" d="M59 -240V227H184V-240H59ZM244 -10Q154 -10 107 40T59 186V542H184V214Q184 156 205 124T283 92Q334 92 361 114T400 179T411 278V542H536V0H440L420 71H413Q396 44 371 26T314 -1T244 -10Z" />
<glyph unicode="&#xb6;" horiz-adv-x="600" d="M324 273Q310 269 291 267T252 264Q187 264 140 288T69 366T44 509Q44 601 71 656T147 735T267 760H546V-127H476V687H393V-127H324V273Z" />
<glyph unicode="&#xb7;" horiz-adv-x="600" d="M300 265Q263 265 242 285T220 345Q220 387 241 406T300 426Q337 426 358 406T379 345Q379 307 358 286T300 265Z" />
<glyph unicode="&#xb8;" horiz-adv-x="600" d="M263 -240Q245 -240 228 -238T199 -233V-166Q210 -169 224 -171T251 -173Q279 -173 296 -164T313 -132Q313 -109 293 -98T232 -82L271 5H339L320 -42Q356 -50 380 -72T404 -138Q404 -184 371 -212T263 -240Z" />
<glyph unicode="&#xb9;" horiz-adv-x="600" d="M276 653Q276 677 276 704T278 751Q271 745 260 738T240 724L186 691L146 756L287 844H360V416H276V653ZM174 416V475L280 484H355L461 475V416H174Z" />
<glyph unicode="&#xba;" horiz-adv-x="600" d="M298 374Q231 374 189 419T147 549Q147 632 188 677T300 722Q344 722 378 702T432 643T452 549Q452 464 411 419T298 374ZM299 442Q335 442 351 469T367 548Q367 584 360 607T338 642T299 654Q264 654 248 627T231
549Q231 496 247 469T299 442Z" />
<glyph unicode="&#xbb;" horiz-adv-x="600" d="M155 491L323 278V264L155 50L71 99L197 271L71 442L155 491ZM363 491L529 278V264L363 50L278 99L404 271L279 442L363 491Z" />
<glyph unicode="&#xbc;" horiz-adv-x="600" d="M59 45L455 654H552L158 45H59ZM32 374V432L123 440H170L261 432V374H32ZM450 0V68H299V127L445 341H524V131H576V68H524V0H450ZM371 131H450V201Q450 218 451 230T452 259Q448 247 440 235T426 212L371 131ZM109
548Q109 570 110 591T112 633Q103 626 94 620T74 607L43 589L6 651L116 714H183V374H109V548Z" />
<glyph unicode="&#xbd;" horiz-adv-x="600" d="M59 45L455 654H552L158 45H59ZM32 374V432L123 440H170L261 432V374H32ZM339 0V63L422 145Q450 172 464 187T485 215T491 242Q491 261 479 271T447 282Q428 282 412 273T378 249L339 300Q360 321 389 334T456 348Q510
348 539 321T569 249Q569 222 559 200T527 156T474 104L435 69H580V0H339ZM109 548Q109 570 110 591T112 633Q103 626 94 620T74 607L43 589L6 651L116 714H183V374H109V548Z" />
<glyph unicode="&#xbe;" horiz-adv-x="600" d="M59 45L455 654H552L158 45H59ZM450 0V68H299V127L445 341H524V131H576V68H524V0H450ZM371 131H450V201Q450 218 451 230T452 259Q448 247 440 235T426 212L371 131ZM130 369Q103 369 79 374T33 391V463Q57 448 81
442T129 435Q160 435 174 446T189 479Q189 499 173 509T124 519H80V579H120Q153 579 166 590T180 621Q180 640 169 649T137 659Q119 659 102 652T64 630L26 682Q52 701 79 712T143 723Q198 723 228 699T259 633Q259 603 245 584T207 555V552Q268 536 268 473Q268
426 234 398T130 369Z" />
<glyph unicode="&#xbf;" horiz-adv-x="600" d="M360 276Q360 240 351 213T320 163T264 115Q236 94 218 76T190 38T180 -12Q180 -48 206 -69T280 -91Q322 -91 361 -79T447 -44L492 -139Q442 -165 390 -180T275 -195Q212 -195 164 -175T88 -115T60 -19Q60 26 72
57T108 115T172 169Q202 191 219 207T243 241T251 284V305H360V276ZM303 539Q340 539 361 519T383 459Q383 418 362 398T303 378Q267 378 246 398T224 459Q224 498 245 518T303 539Z" />
<glyph unicode="&#xc0;" horiz-adv-x="600" d="M14 0L224 717H375L586 0H461L330 488Q326 507 321 527T310 569T300 613Q295 591 290 569T280 527T269 488L136 0H14ZM163 193L193 298H407L425 193H163ZM299 778Q282 791 261 810T217 852T175 894T145 929V938H283Q295
917 312 889T348 835T381 791V778H299Z" />
<glyph unicode="&#xc1;" horiz-adv-x="600" d="M14 0L224 717H375L586 0H461L330 488Q326 507 321 527T310 569T300 613Q295 591 290 569T280 527T269 488L136 0H14ZM163 193L193 298H407L425 193H163ZM242 791Q258 812 276 837T311 889T339 938H478V929Q463 910
436 882T378 826T323 778H242V791Z" />
<glyph unicode="&#xc2;" horiz-adv-x="600" d="M14 0L224 717H375L586 0H461L330 488Q326 507 321 527T310 569T300 613Q295 591 290 569T280 527T269 488L136 0H14ZM163 193L193 298H407L425 193H163ZM122 790Q140 810 162 836T204 889T237 938H363Q375 916 395
890T437 837T478 790V778H399Q376 794 350 817T299 867Q274 841 249 818T200 778H122V790Z" />
<glyph unicode="&#xc3;" horiz-adv-x="600" d="M14 0L224 717H375L586 0H461L330 488Q326 507 321 527T310 569T300 613Q295 591 290 569T280 527T269 488L136 0H14ZM163 193L193 298H407L425 193H163ZM114 777Q116 808 124 834T145 879T179 908T224 919Q245 919
265 911T305 893T342 874T377 866Q396 866 406 880T423 920H486Q481 851 452 815T377 778Q356 778 336 786T296 805T259 824T224 832Q203 832 194 819T178 777H114Z" />
<glyph unicode="&#xc4;" horiz-adv-x="600" d="M14 0L224 717H375L586 0H461L330 488Q326 507 321 527T310 569T300 613Q295 591 290 569T280 527T269 488L136 0H14ZM163 193L193 298H407L425 193H163ZM415 787Q388 787 369 804T350 855Q350 890 369 906T415 922Q443
922 462 906T482 855Q482 821 463 804T415 787ZM183 787Q156 787 138 804T119 855Q119 890 137 906T183 922Q211 922 230 906T250 855Q250 821 231 804T183 787Z" />
<glyph unicode="&#xc5;" horiz-adv-x="600" d="M14 0L224 717H375L586 0H461L330 488Q326 507 321 527T310 569T300 613Q295 591 290 569T280 527T269 488L136 0H14ZM163 193L193 298H407L425 193H163ZM299 778Q247 778 216 808T184 890Q184 941 215 971T298 1001Q348
1001 382 971T416 891Q416 839 383 809T299 778ZM299 841Q321 841 334 854T348 890Q348 912 334 925T299 939Q279 939 265 926T250 889Q250 867 263 854T299 841Z" />
<glyph unicode="&#xc6;" horiz-adv-x="600" d="M14 0L180 714H560V607H405V425H541V318H405V107H560V0H297V607H262L130 0H14ZM142 192L164 298H322V192H142Z" />
<glyph unicode="&#xc7;" horiz-adv-x="600" d="M356 -10Q253 -10 187 35T88 160T56 348Q56 435 77 504T140 623T241 698T381 724Q433 724 474 714T556 683L514 581Q479 599 445 607T378 615Q326 615 289 597T228 545T194 461T182 351Q182 270 202 214T263 129T372
100Q407 100 444 108T527 137V24Q485 6 443 -2T356 -10ZM303 -240Q285 -240 268 -238T239 -233V-166Q250 -169 264 -171T291 -173Q319 -173 336 -164T353 -132Q353 -109 333 -98T272 -82L311 5H379L360 -42Q396 -50 420 -72T444 -138Q444 -184 411 -212T303 -240Z"
/>
<glyph unicode="&#xc8;" horiz-adv-x="600" d="M86 0V714H524V606H207V425H508V317H207V108H524V0H86ZM305 778Q288 791 267 810T223 852T181 894T151 929V938H289Q301 917 318 889T354 835T387 791V778H305Z" />
<glyph unicode="&#xc9;" horiz-adv-x="600" d="M86 0V714H524V606H207V425H508V317H207V108H524V0H86ZM248 791Q264 812 282 837T317 889T345 938H484V929Q469 910 442 882T384 826T329 778H248V791Z" />
<glyph unicode="&#xca;" horiz-adv-x="600" d="M86 0V714H524V606H207V425H508V317H207V108H524V0H86ZM128 790Q146 810 168 836T210 889T243 938H369Q381 916 401 890T443 837T484 790V778H405Q382 794 356 817T305 867Q280 841 255 818T206 778H128V790Z" />
<glyph unicode="&#xcb;" horiz-adv-x="600" d="M86 0V714H524V606H207V425H508V317H207V108H524V0H86ZM421 787Q394 787 375 804T356 855Q356 890 375 906T421 922Q449 922 468 906T488 855Q488 821 469 804T421 787ZM189 787Q162 787 144 804T125 855Q125 890
143 906T189 922Q217 922 236 906T256 855Q256 821 237 804T189 787Z" />
<glyph unicode="&#xcc;" horiz-adv-x="600" d="M98 0V86L238 101V613L98 628V714H502V628L359 613V101L502 86V0H98ZM299 778Q282 791 261 810T217 852T175 894T145 929V938H283Q295 917 312 889T348 835T381 791V778H299Z" />
<glyph unicode="&#xcd;" horiz-adv-x="600" d="M98 0V86L238 101V613L98 628V714H502V628L359 613V101L502 86V0H98ZM242 791Q258 812 276 837T311 889T339 938H478V929Q463 910 436 882T378 826T323 778H242V791Z" />
<glyph unicode="&#xce;" horiz-adv-x="600" d="M98 0V86L238 101V613L98 628V714H502V628L359 613V101L502 86V0H98ZM122 790Q140 810 162 836T204 889T237 938H363Q375 916 395 890T437 837T478 790V778H399Q376 794 350 817T299 867Q274 841 249 818T200 778H122V790Z" />
<glyph unicode="&#xcf;" horiz-adv-x="600" d="M98 0V86L238 101V613L98 628V714H502V628L359 613V101L502 86V0H98ZM415 787Q388 787 369 804T350 855Q350 890 369 906T415 922Q443 922 462 906T482 855Q482 821 463 804T415 787ZM183 787Q156 787 138 804T119
855Q119 890 137 906T183 922Q211 922 230 906T250 855Q250 821 231 804T183 787Z" />
<glyph unicode="&#xd0;" horiz-adv-x="600" d="M0 301V405H293V301H0ZM58 0V714H261Q355 714 423 675T530 557T568 363Q568 245 529 164T419 42T247 0H58ZM238 106Q343 106 392 170T442 362Q442 447 420 501T356 582T253 608H181V106H238Z" />
<glyph unicode="&#xd1;" horiz-adv-x="600" d="M54 0V714H222L437 131H440Q438 164 437 194T434 252T433 303T432 348V714H546V0H381L160 596H156Q158 563 160 532T164 471T167 417T168 372V0H54ZM119 777Q121 808 129 834T150 879T184 908T229 919Q250 919 270
911T310 893T347 874T382 866Q401 866 411 880T428 920H491Q486 851 457 815T382 778Q361 778 341 786T301 805T264 824T229 832Q208 832 199 819T183 777H119Z" />
<glyph unicode="&#xd2;" horiz-adv-x="600" d="M300 -10Q231 -10 181 15T99 89T52 205T36 358Q36 471 64 554T150 681T300 726Q369 726 419 701T501 627T548 511T564 358Q564 273 549 205T501 89T419 16T300 -10ZM300 98Q350 98 380 128T424 216T438 359Q438 484
407 551T301 618Q251 618 221 588T176 500T162 358Q162 274 176 216T220 128T300 98ZM299 778Q282 791 261 810T217 852T175 894T145 929V938H283Q295 917 312 889T348 835T381 791V778H299Z" />
<glyph unicode="&#xd3;" horiz-adv-x="600" d="M300 -10Q231 -10 181 15T99 89T52 205T36 358Q36 471 64 554T150 681T300 726Q369 726 419 701T501 627T548 511T564 358Q564 273 549 205T501 89T419 16T300 -10ZM300 98Q350 98 380 128T424 216T438 359Q438 484
407 551T301 618Q251 618 221 588T176 500T162 358Q162 274 176 216T220 128T300 98ZM242 791Q258 812 276 837T311 889T339 938H478V929Q463 910 436 882T378 826T323 778H242V791Z" />
<glyph unicode="&#xd4;" horiz-adv-x="600" d="M300 -10Q231 -10 181 15T99 89T52 205T36 358Q36 471 64 554T150 681T300 726Q369 726 419 701T501 627T548 511T564 358Q564 273 549 205T501 89T419 16T300 -10ZM300 98Q350 98 380 128T424 216T438 359Q438 484
407 551T301 618Q251 618 221 588T176 500T162 358Q162 274 176 216T220 128T300 98ZM122 790Q140 810 162 836T204 889T237 938H363Q375 916 395 890T437 837T478 790V778H399Q376 794 350 817T299 867Q274 841 249 818T200 778H122V790Z" />
<glyph unicode="&#xd5;" horiz-adv-x="600" d="M300 -10Q231 -10 181 15T99 89T52 205T36 358Q36 471 64 554T150 681T300 726Q369 726 419 701T501 627T548 511T564 358Q564 273 549 205T501 89T419 16T300 -10ZM300 98Q350 98 380 128T424 216T438 359Q438 484
407 551T301 618Q251 618 221 588T176 500T162 358Q162 274 176 216T220 128T300 98ZM114 777Q116 808 124 834T145 879T179 908T224 919Q245 919 265 911T305 893T342 874T377 866Q396 866 406 880T423 920H486Q481 851 452 815T377 778Q356 778 336 786T296 805T259
824T224 832Q203 832 194 819T178 777H114Z" />
<glyph unicode="&#xd6;" horiz-adv-x="600" d="M300 -10Q231 -10 181 15T99 89T52 205T36 358Q36 471 64 554T150 681T300 726Q369 726 419 701T501 627T548 511T564 358Q564 273 549 205T501 89T419 16T300 -10ZM300 98Q350 98 380 128T424 216T438 359Q438 484
407 551T301 618Q251 618 221 588T176 500T162 358Q162 274 176 216T220 128T300 98ZM415 787Q388 787 369 804T350 855Q350 890 369 906T415 922Q443 922 462 906T482 855Q482 821 463 804T415 787ZM183 787Q156 787 138 804T119 855Q119 890 137 906T183 922Q211
922 230 906T250 855Q250 821 231 804T183 787Z" />
<glyph unicode="&#xd7;" horiz-adv-x="600" d="M148 135L83 201L233 353L82 504L148 571L300 421L453 571L519 505L367 353L517 201L452 135L300 286L148 135Z" />
<glyph unicode="&#xd8;" horiz-adv-x="600" d="M102 -41L29 4L502 750L574 706L102 -41ZM300 -10Q231 -10 181 15T99 89T52 205T36 358Q36 471 64 554T150 681T300 726Q369 726 419 701T501 627T548 511T564 358Q564 273 549 205T501 89T419 16T300 -10ZM300 98Q350
98 380 128T424 216T438 359Q438 484 407 551T301 618Q251 618 221 588T176 500T162 358Q162 274 176 216T220 128T300 98Z" />
<glyph unicode="&#xd9;" horiz-adv-x="600" d="M298 -10Q215 -10 161 20T81 109T54 247V714H179V265Q179 209 191 172T230 116T300 98Q346 98 372 117T410 173T421 266V714H546V247Q546 171 520 113T439 23T298 -10ZM299 778Q282 791 261 810T217 852T175 894T145
929V938H283Q295 917 312 889T348 835T381 791V778H299Z" />
<glyph unicode="&#xda;" horiz-adv-x="600" d="M298 -10Q215 -10 161 20T81 109T54 247V714H179V265Q179 209 191 172T230 116T300 98Q346 98 372 117T410 173T421 266V714H546V247Q546 171 520 113T439 23T298 -10ZM242 791Q258 812 276 837T311 889T339 938H478V929Q463
910 436 882T378 826T323 778H242V791Z" />
<glyph unicode="&#xdb;" horiz-adv-x="600" d="M298 -10Q215 -10 161 20T81 109T54 247V714H179V265Q179 209 191 172T230 116T300 98Q346 98 372 117T410 173T421 266V714H546V247Q546 171 520 113T439 23T298 -10ZM122 790Q140 810 162 836T204 889T237 938H363Q375
916 395 890T437 837T478 790V778H399Q376 794 350 817T299 867Q274 841 249 818T200 778H122V790Z" />
<glyph unicode="&#xdc;" horiz-adv-x="600" d="M298 -10Q215 -10 161 20T81 109T54 247V714H179V265Q179 209 191 172T230 116T300 98Q346 98 372 117T410 173T421 266V714H546V247Q546 171 520 113T439 23T298 -10ZM415 787Q388 787 369 804T350 855Q350 890
369 906T415 922Q443 922 462 906T482 855Q482 821 463 804T415 787ZM183 787Q156 787 138 804T119 855Q119 890 137 906T183 922Q211 922 230 906T250 855Q250 821 231 804T183 787Z" />
<glyph unicode="&#xdd;" horiz-adv-x="600" d="M239 0V277L26 714H158L301 389L443 714H574L362 277V0H239ZM242 791Q258 812 276 837T311 889T339 938H478V929Q463 910 436 882T378 826T323 778H242V791Z" />
<glyph unicode="&#xde;" horiz-adv-x="600" d="M86 0V714H207V590H310Q435 590 494 534T554 373Q554 307 529 254T448 169T300 138H207V0H86ZM287 244Q335 244 366 257T414 298T430 368Q430 426 400 455T304 484H207V244H287Z" />
<glyph unicode="&#xdf;" horiz-adv-x="600" d="M378 -10Q339 -10 305 -2T243 22V129Q268 113 302 101T372 88Q412 88 431 106T450 158Q450 178 443 191T417 218T366 256Q332 280 310 301T278 343T268 392Q268 425 280 447T310 486T347 518T378 551T391 594Q391
630 364 646T293 663Q260 663 236 652T198 618T184 559V0H63V565Q63 634 91 678T171 743T291 765Q356 765 406 747T484 694T513 608Q513 572 500 547T469 502T431 467T400 437T387 405Q387 392 397 380T426 354T470 322Q501 300 524 278T560 227T573 156Q573 101
550 64T483 9T378 -10Z" />
<glyph unicode="&#xe0;" horiz-adv-x="600" d="M232 -10Q148 -10 103 33T58 154Q58 214 84 252T163 310T291 332L409 335V358Q409 409 379 430T291 452Q253 452 214 443T133 416L92 505Q136 527 186 539T296 552Q406 552 466 506T526 362V0H430L412 71H408Q384
42 357 25T298 -1T232 -10ZM269 89Q307 89 339 103T390 144T409 210V256L321 254Q272 253 240 242T193 212T177 163Q177 123 203 106T269 89ZM562 606Q545 619 524 638T480 680T438 722T408 757V766H546Q558 745 575 717T611 663T644 619V606H562Z" />
<glyph unicode="&#xe1;" horiz-adv-x="600" d="M232 -10Q148 -10 103 33T58 154Q58 214 84 252T163 310T291 332L409 335V358Q409 409 379 430T291 452Q253 452 214 443T133 416L92 505Q136 527 186 539T296 552Q406 552 466 506T526 362V0H430L412 71H408Q384
42 357 25T298 -1T232 -10ZM269 89Q307 89 339 103T390 144T409 210V256L321 254Q272 253 240 242T193 212T177 163Q177 123 203 106T269 89ZM249 619Q265 640 283 665T318 717T346 766H485V757Q470 738 443 710T385 654T330 606H249V619Z" />
<glyph unicode="&#xe2;" horiz-adv-x="600" d="M232 -10Q148 -10 103 33T58 154Q58 214 84 252T163 310T291 332L409 335V358Q409 409 379 430T291 452Q253 452 214 443T133 416L92 505Q136 527 186 539T296 552Q406 552 466 506T526 362V0H430L412 71H408Q384
42 357 25T298 -1T232 -10ZM269 89Q307 89 339 103T390 144T409 210V256L321 254Q272 253 240 242T193 212T177 163Q177 123 203 106T269 89ZM129 618Q147 638 169 664T211 717T244 766H370Q382 744 402 718T444 665T485 618V606H406Q383 622 357 645T306 695Q281
669 256 646T207 606H129V618Z" />
<glyph unicode="&#xe3;" horiz-adv-x="600" d="M232 -10Q148 -10 103 33T58 154Q58 214 84 252T163 310T291 332L409 335V358Q409 409 379 430T291 452Q253 452 214 443T133 416L92 505Q136 527 186 539T296 552Q406 552 466 506T526 362V0H430L412 71H408Q384
42 357 25T298 -1T232 -10ZM269 89Q307 89 339 103T390 144T409 210V256L321 254Q272 253 240 242T193 212T177 163Q177 123 203 106T269 89ZM121 605Q123 636 131 662T152 707T186 736T231 747Q252 747 272 739T312 721T349 702T384 694Q403 694 413 708T430 748H493Q488
679 459 643T384 606Q363 606 343 614T303 633T266 652T231 660Q210 660 201 647T185 605H121Z" />
<glyph unicode="&#xe4;" horiz-adv-x="600" d="M232 -10Q148 -10 103 33T58 154Q58 214 84 252T163 310T291 332L409 335V358Q409 409 379 430T291 452Q253 452 214 443T133 416L92 505Q136 527 186 539T296 552Q406 552 466 506T526 362V0H430L412 71H408Q384
42 357 25T298 -1T232 -10ZM269 89Q307 89 339 103T390 144T409 210V256L321 254Q272 253 240 242T193 212T177 163Q177 123 203 106T269 89ZM422 615Q395 615 376 632T357 683Q357 718 376 734T422 750Q450 750 469 734T489 683Q489 649 470 632T422 615ZM190
615Q163 615 145 632T126 683Q126 718 144 734T190 750Q218 750 237 734T257 683Q257 649 238 632T190 615Z" />
<glyph unicode="&#xe5;" horiz-adv-x="600" d="M232 -10Q148 -10 103 33T58 154Q58 214 84 252T163 310T291 332L409 335V358Q409 409 379 430T291 452Q253 452 214 443T133 416L92 505Q136 527 186 539T296 552Q406 552 466 506T526 362V0H430L412 71H408Q384
42 357 25T298 -1T232 -10ZM269 89Q307 89 339 103T390 144T409 210V256L321 254Q272 253 240 242T193 212T177 163Q177 123 203 106T269 89ZM306 606Q254 606 223 636T191 718Q191 769 222 799T305 829Q355 829 389 799T423 719Q423 667 390 637T306 606ZM306
669Q328 669 341 682T355 718Q355 740 341 753T306 767Q286 767 272 754T257 717Q257 695 270 682T306 669Z" />
<glyph unicode="&#xe6;" horiz-adv-x="600" d="M147 -10Q86 -10 50 31T14 154Q14 211 33 249T89 306T179 327L247 329V369Q247 413 229 432T172 452Q151 452 129 445T84 425L44 510Q74 530 111 541T183 552Q227 552 258 538T310 493Q333 522 363 537T430 552Q482
552 517 522T569 436T586 306V244H351Q352 188 367 153T407 102T467 86Q495 86 518 95T567 124V27Q543 8 515 -1T452 -10Q402 -10 360 13T293 86Q268 37 234 14T147 -10ZM175 87Q197 87 212 100T237 141T246 210V254L209 253Q165 251 144 227T123 160Q123 122 138
105T175 87ZM480 327Q479 369 473 397T454 438T420 452Q390 452 373 419T354 327H480Z" />
<glyph unicode="&#xe7;" horiz-adv-x="600" d="M339 -10Q252 -10 194 20T106 111T76 265Q76 363 107 426T199 521T345 552Q388 552 431 544T514 517L478 418Q441 434 409 440T352 446Q301 446 268 427T218 368T202 269Q202 208 219 170T269 114T352 96Q388 96
426 105T501 136V25Q463 6 423 -2T339 -10ZM292 -240Q274 -240 257 -238T228 -233V-166Q239 -169 253 -171T280 -173Q308 -173 325 -164T342 -132Q342 -109 322 -98T261 -82L300 5H368L349 -42Q385 -50 409 -72T433 -138Q433 -184 400 -212T292 -240Z" />
<glyph unicode="&#xe8;" horiz-adv-x="600" d="M346 -10Q253 -10 188 22T89 118T54 272Q54 358 84 421T173 518T310 552Q385 552 437 522T518 435T546 299V239H176Q178 187 201 155T264 107T353 92Q394 92 437 102T527 132V29Q482 7 436 -1T346 -10ZM431 327Q431
368 416 396T374 440T312 456Q258 456 222 422T179 327H431ZM563 606Q546 619 525 638T481 680T439 722T409 757V766H547Q559 745 576 717T612 663T645 619V606H563Z" />
<glyph unicode="&#xe9;" horiz-adv-x="600" d="M346 -10Q253 -10 188 22T89 118T54 272Q54 358 84 421T173 518T310 552Q385 552 437 522T518 435T546 299V239H176Q178 187 201 155T264 107T353 92Q394 92 437 102T527 132V29Q482 7 436 -1T346 -10ZM431 327Q431
368 416 396T374 440T312 456Q258 456 222 422T179 327H431ZM250 619Q266 640 284 665T319 717T347 766H486V757Q471 738 444 710T386 654T331 606H250V619Z" />
<glyph unicode="&#xea;" horiz-adv-x="600" d="M346 -10Q253 -10 188 22T89 118T54 272Q54 358 84 421T173 518T310 552Q385 552 437 522T518 435T546 299V239H176Q178 187 201 155T264 107T353 92Q394 92 437 102T527 132V29Q482 7 436 -1T346 -10ZM431 327Q431
368 416 396T374 440T312 456Q258 456 222 422T179 327H431ZM130 618Q148 638 170 664T212 717T245 766H371Q383 744 403 718T445 665T486 618V606H407Q384 622 358 645T307 695Q282 669 257 646T208 606H130V618Z" />
<glyph unicode="&#xeb;" horiz-adv-x="600" d="M346 -10Q253 -10 188 22T89 118T54 272Q54 358 84 421T173 518T310 552Q385 552 437 522T518 435T546 299V239H176Q178 187 201 155T264 107T353 92Q394 92 437 102T527 132V29Q482 7 436 -1T346 -10ZM431 327Q431
368 416 396T374 440T312 456Q258 456 222 422T179 327H431ZM422 615Q395 615 376 632T357 683Q357 718 376 734T422 750Q450 750 469 734T489 683Q489 649 470 632T422 615ZM190 615Q163 615 145 632T126 683Q126 718 144 734T190 750Q218 750 237 734T257 683Q257
649 238 632T190 615Z" />
<glyph unicode="&#xec;" horiz-adv-x="600" d="M68 0V79L253 103V439L90 455V542H377V103L546 79V0H68ZM555 606Q538 619 517 638T473 680T431 722T401 757V766H539Q551 745 568 717T604 663T637 619V606H555Z" />
<glyph unicode="&#xed;" horiz-adv-x="600" d="M68 0V79L253 103V439L90 455V542H377V103L546 79V0H68ZM242 619Q258 640 276 665T311 717T339 766H478V757Q463 738 436 710T378 654T323 606H242V619Z" />
<glyph unicode="&#xee;" horiz-adv-x="600" d="M68 0V79L253 103V439L90 455V542H377V103L546 79V0H68ZM378 618Q396 638 418 664T460 717T493 766H619Q631 744 651 718T693 665T734 618V606H655Q632 622 606 645T555 695Q530 669 505 646T456 606H378V618Z" />
<glyph unicode="&#xef;" horiz-adv-x="600" d="M68 0V79L253 103V439L90 455V542H377V103L546 79V0H68ZM671 615Q644 615 625 632T606 683Q606 718 625 734T671 750Q699 750 718 734T738 683Q738 649 719 632T671 615ZM439 615Q412 615 394 632T375 683Q375 718
393 734T439 750Q467 750 486 734T506 683Q506 649 487 632T439 615Z" />
<glyph unicode="&#xf0;" horiz-adv-x="600" d="M297 -10Q224 -10 167 19T78 103T46 236Q46 314 75 368T156 451T277 480Q328 480 364 468T420 428L424 430Q408 474 382 511T322 581T250 640T169 691L213 765Q295 729 358 679T465 566T531 431T554 278Q554 138
485 64T297 -10ZM299 83Q345 83 374 102T416 160T430 256Q430 292 416 321T373 369T299 388Q253 388 225 371T183 319T170 234Q170 190 183 156T225 103T299 83ZM197 518L154 585L451 762L496 697L197 518Z" />
<glyph unicode="&#xf1;" horiz-adv-x="600" d="M64 0V542H160L180 469H187Q203 497 228 515T285 543T356 552Q443 552 492 503T541 357V0H416V328Q416 391 391 420T315 450Q247 450 218 401T189 264V0H64ZM121 605Q123 636 131 662T152 707T186 736T231 747Q252
747 272 739T312 721T349 702T384 694Q403 694 413 708T430 748H493Q488 679 459 643T384 606Q363 606 343 614T303 633T266 652T231 660Q210 660 201 647T185 605H121Z" />
<glyph unicode="&#xf2;" horiz-adv-x="600" d="M300 -10Q243 -10 196 9T115 64T64 152T46 271Q46 360 77 423T166 519T300 552Q376 552 433 520T522 425T554 271Q554 205 537 153T487 65T407 9T300 -10ZM301 90Q345 90 373 112T414 175T428 271Q428 327 415 367T373
430T301 452Q235 452 203 404T171 271Q171 216 185 176T229 113T301 90ZM555 606Q538 619 517 638T473 680T431 722T401 757V766H539Q551 745 568 717T604 663T637 619V606H555Z" />
<glyph unicode="&#xf3;" horiz-adv-x="600" d="M300 -10Q243 -10 196 9T115 64T64 152T46 271Q46 360 77 423T166 519T300 552Q376 552 433 520T522 425T554 271Q554 205 537 153T487 65T407 9T300 -10ZM301 90Q345 90 373 112T414 175T428 271Q428 327 415 367T373
430T301 452Q235 452 203 404T171 271Q171 216 185 176T229 113T301 90ZM242 619Q258 640 276 665T311 717T339 766H478V757Q463 738 436 710T378 654T323 606H242V619Z" />
<glyph unicode="&#xf4;" horiz-adv-x="600" d="M300 -10Q243 -10 196 9T115 64T64 152T46 271Q46 360 77 423T166 519T300 552Q376 552 433 520T522 425T554 271Q554 205 537 153T487 65T407 9T300 -10ZM301 90Q345 90 373 112T414 175T428 271Q428 327 415 367T373
430T301 452Q235 452 203 404T171 271Q171 216 185 176T229 113T301 90ZM378 618Q396 638 418 664T460 717T493 766H619Q631 744 651 718T693 665T734 618V606H655Q632 622 606 645T555 695Q530 669 505 646T456 606H378V618Z" />
<glyph unicode="&#xf5;" horiz-adv-x="600" d="M300 -10Q243 -10 196 9T115 64T64 152T46 271Q46 360 77 423T166 519T300 552Q376 552 433 520T522 425T554 271Q554 205 537 153T487 65T407 9T300 -10ZM301 90Q345 90 373 112T414 175T428 271Q428 327 415 367T373
430T301 452Q235 452 203 404T171 271Q171 216 185 176T229 113T301 90ZM114 605Q116 636 124 662T145 707T179 736T224 747Q245 747 265 739T305 721T342 702T377 694Q396 694 406 708T423 748H486Q481 679 452 643T377 606Q356 606 336 614T296 633T259 652T224
660Q203 660 194 647T178 605H114Z" />
<glyph unicode="&#xf6;" horiz-adv-x="600" d="M300 -10Q243 -10 196 9T115 64T64 152T46 271Q46 360 77 423T166 519T300 552Q376 552 433 520T522 425T554 271Q554 205 537 153T487 65T407 9T300 -10ZM301 90Q345 90 373 112T414 175T428 271Q428 327 415 367T373
430T301 452Q235 452 203 404T171 271Q171 216 185 176T229 113T301 90ZM671 615Q644 615 625 632T606 683Q606 718 625 734T671 750Q699 750 718 734T738 683Q738 649 719 632T671 615ZM439 615Q412 615 394 632T375 683Q375 718 393 734T439 750Q467 750 486
734T506 683Q506 649 487 632T439 615Z" />
<glyph unicode="&#xf7;" horiz-adv-x="600" d="M74 306V399H526V306H74ZM300 106Q273 106 255 123T237 176Q237 214 254 230T300 246Q328 246 345 230T363 176Q363 141 345 124T300 106ZM300 460Q273 460 255 476T237 529Q237 566 254 582T300 599Q328 599 345
583T363 529Q363 493 345 477T300 460Z" />
<glyph unicode="&#xf8;" horiz-adv-x="600" d="M141 -35L74 10L462 572L530 526L141 -35ZM300 -10Q243 -10 196 9T115 64T64 152T46 271Q46 360 77 423T166 519T300 552Q376 552 433 520T522 425T554 271Q554 205 537 153T487 65T407 9T300 -10ZM301 90Q345 90
373 112T414 175T428 271Q428 327 415 367T373 430T301 452Q235 452 203 404T171 271Q171 216 185 176T229 113T301 90Z" />
<glyph unicode="&#xf9;" horiz-adv-x="600" d="M244 -10Q154 -10 107 40T59 186V542H184V214Q184 156 205 124T283 92Q334 92 361 114T400 179T411 278V542H536V0H440L420 71H413Q396 44 371 26T314 -1T244 -10ZM555 606Q538 619 517 638T473 680T431 722T401
757V766H539Q551 745 568 717T604 663T637 619V606H555Z" />
<glyph unicode="&#xfa;" horiz-adv-x="600" d="M244 -10Q154 -10 107 40T59 186V542H184V214Q184 156 205 124T283 92Q334 92 361 114T400 179T411 278V542H536V0H440L420 71H413Q396 44 371 26T314 -1T244 -10ZM242 619Q258 640 276 665T311 717T339 766H478V757Q463
738 436 710T378 654T323 606H242V619Z" />
<glyph unicode="&#xfb;" horiz-adv-x="600" d="M244 -10Q154 -10 107 40T59 186V542H184V214Q184 156 205 124T283 92Q334 92 361 114T400 179T411 278V542H536V0H440L420 71H413Q396 44 371 26T314 -1T244 -10ZM378 618Q396 638 418 664T460 717T493 766H619Q631
744 651 718T693 665T734 618V606H655Q632 622 606 645T555 695Q530 669 505 646T456 606H378V618Z" />
<glyph unicode="&#xfc;" horiz-adv-x="600" d="M244 -10Q154 -10 107 40T59 186V542H184V214Q184 156 205 124T283 92Q334 92 361 114T400 179T411 278V542H536V0H440L420 71H413Q396 44 371 26T314 -1T244 -10ZM671 615Q644 615 625 632T606 683Q606 718 625
734T671 750Q699 750 718 734T738 683Q738 649 719 632T671 615ZM439 615Q412 615 394 632T375 683Q375 718 393 734T439 750Q467 750 486 734T506 683Q506 649 487 632T439 615Z" />
<glyph unicode="&#xfd;" horiz-adv-x="600" d="M134 -245Q115 -245 97 -243T61 -237V-134Q74 -136 89 -138T116 -140Q147 -140 168 -129T205 -97T232 -44L248 1L29 542H161L275 228Q284 204 292 175T307 115H310Q314 136 319 155T330 192T341 228L438 542H570L355
-44Q331 -110 302 -155T232 -222T134 -245ZM242 619Q258 640 276 665T311 717T339 766H478V757Q463 738 436 710T378 654T323 606H242V619Z" />
<glyph unicode="&#xfe;" horiz-adv-x="600" d="M64 -240V760H186V558Q186 536 185 514T182 470H186Q204 497 227 515T281 542T347 552Q399 552 437 532T502 475T541 386T554 272Q554 182 529 119T456 23T344 -10Q311 -10 281 -1T228 24T186 63H180Q184 35 185
15T186 -16V-240H64ZM309 92Q370 92 398 136T426 274Q426 362 398 406T308 450Q248 450 217 409T186 290V273Q186 184 216 138T309 92Z" />
<glyph unicode="&#xff;" horiz-adv-x="600" d="M134 -245Q115 -245 97 -243T61 -237V-134Q74 -136 89 -138T116 -140Q147 -140 168 -129T205 -97T232 -44L248 1L29 542H161L275 228Q284 204 292 175T307 115H310Q314 136 319 155T330 192T341 228L438 542H570L355
-44Q331 -110 302 -155T232 -222T134 -245ZM671 615Q644 615 625 632T606 683Q606 718 625 734T671 750Q699 750 718 734T738 683Q738 649 719 632T671 615ZM439 615Q412 615 394 632T375 683Q375 718 393 734T439 750Q467 750 486 734T506 683Q506 649 487 632T439
615Z" />
<glyph unicode="&#x2013;" horiz-adv-x="600" d="M100 214V322H500V214H100Z" />
<glyph unicode="&#x2014;" horiz-adv-x="600" d="M0 214V322H600V214H0Z" />
<glyph unicode="&#x2018;" horiz-adv-x="600" d="M212 480Q221 516 235 556T265 637T298 714H387Q378 675 368 632T350 546T337 469H219L212 480Z" />
<glyph unicode="&#x2019;" horiz-adv-x="600" d="M210 469Q218 503 225 536T238 600T250 660T259 714H383L390 703Q382 670 369 632T340 553T304 469H210Z" />
<glyph unicode="&#x201a;" horiz-adv-x="600" d="M200 -150Q211 -106 221 -55T240 46T254 133H380L387 122Q381 95 371 62T349 -8T324 -81T295 -150H200Z" />
<glyph unicode="&#x201c;" horiz-adv-x="600" d="M364 480Q373 516 387 556T417 637T450 714H539Q530 675 520 632T502 546T489 469H371L364 480ZM317 480Q326 516 340 556T370 637T403 714H492Q483 675 473 632T455 546T442 469H324L317 480Z" />
<glyph unicode="&#x201d;" horiz-adv-x="600" d="M491 703Q482 668 468 628T438 547T405 469H317Q327 508 336 551T353 637T366 714H485L491 703ZM282 703Q273 668 259 628T229 547T196 469H107Q117 508 126 551T144 637T157 714H275L282 703Z" />
<glyph unicode="&#x201e;" horiz-adv-x="600" d="M326 -150Q337 -106 347 -55T366 46T380 133H506L513 122Q507 95 497 62T475 -8T450 -81T421 -150H326ZM377 -150Q388 -106 398 -55T417 46T431 133H557L564 122Q558 95 548 62T526 -8T501 -81T472 -150H377Z" />
<glyph unicode="&#x2022;" horiz-adv-x="600" d="M300 224Q246 224 210 257T173 365Q173 442 209 474T300 506Q335 506 364 493T410 448T427 365Q427 315 410 284T365 238T300 224Z" />
<glyph unicode="&#x2039;" horiz-adv-x="600" d="M344 50L168 263V276L344 488L431 440L294 270L431 99L344 50Z" />
<glyph unicode="&#x203a;" horiz-adv-x="600" d="M255 509L431 296V283L255 71L168 119L305 289L168 460L255 509Z" />
</font>
</defs>
</svg>
