<?xml version="1.0" standalone="no"?>
<!DOCTYPE svg PUBLIC "-//W3C//DTD SVG 1.1//EN" "http://www.w3.org/Graphics/SVG/1.1/DTD/svg11.dtd">
<svg xmlns="http://www.w3.org/2000/svg">
<defs >
<font id="NotoSansMono" horiz-adv-x="645" ><font-face
    font-family="Noto Sans Mono Thin"
    units-per-em="1000"
    panose-1="2 11 5 9 4 5 4 2 2 4"
    ascent="1069"
    descent="-293"
    alphabetic="0" />
<glyph unicode=" " horiz-adv-x="600" />
<glyph unicode="!" horiz-adv-x="600" d="M288 174L286 714H315L313 174H288ZM299 -12Q283 -12 277 -2T271 23Q271 37 277 47T299 58Q319 58 324 48T329 23Q329 9 324 -1T299 -12Z" />
<glyph unicode="&quot;" horiz-adv-x="600" d="M363 456L359 714H387L383 456H363ZM217 456L213 714H241L237 456H217Z" />
<glyph unicode="#" horiz-adv-x="600" d="M105 0L140 231H23V255H143L176 471H54V495H180L214 714H238L205 495H369L403 714H427L394 495H512V471H391L358 255H479V231H355L319 0H294L330 231H165L129 0H105ZM168 255H334L366 471H201L168 255Z" />
<glyph unicode="$" horiz-adv-x="600" d="M286 20Q223 21 178 30T100 49V78Q135 65 183 56T286 45V353Q235 373 192 394T123 449T97 536Q97 586 122 620T189 672T286 694V759H310V694Q350 693 391 685T472 657L461 634Q419 653 381 660T310 669V370Q366 350 409
328T477 272T502 186Q502 106 448 66T310 20V-58H286V20ZM310 45Q381 49 428 83T475 187Q475 229 455 256T398 304T310 343V45ZM286 669Q241 667 205 652T146 609T124 538Q124 492 147 463T207 414T286 379V669Z" />
<glyph unicode="%" horiz-adv-x="600" d="M94 0L464 714H494L124 0H94ZM463 -9Q392 -9 358 39T324 163Q324 234 358 282T463 330Q533 330 566 282T600 163Q600 88 567 40T463 -9ZM463 15Q519 15 546 57T574 163Q574 224 547 265T463 306Q405 306 378 266T350 163Q350
99 377 57T463 15ZM139 383Q68 383 34 431T0 555Q0 626 34 674T139 722Q209 722 242 674T276 555Q276 480 243 432T139 383ZM139 407Q195 407 222 449T250 555Q250 616 223 657T139 698Q81 698 54 658T26 555Q26 491 53 449T139 407Z" />
<glyph unicode="&amp;" horiz-adv-x="600" d="M262 -10Q208 -10 168 12T106 76T84 175Q84 236 106 276T165 344T241 398Q273 418 303 443T354 502T374 584Q374 637 349 668T276 700Q228 700 201 668T174 585Q174 551 185 519T216 455T259 393L563 0H532L239 381Q210
419 190 452T160 517T149 583Q149 648 184 686T276 725Q331 725 365 688T400 583Q400 528 378 491T324 427T257 379Q219 355 185 329T131 266T110 174Q110 100 150 58T261 15Q306 15 344 32T412 79T465 148T501 230T519 317H544Q538 267 523 219T483 130T426 57T352
8T262 -10Z" />
<glyph unicode="&apos;" horiz-adv-x="600" d="M290 456L286 714H314L310 456H290Z" />
<glyph unicode="(" horiz-adv-x="600" d="M367 -158Q299 -74 261 34T222 274Q222 407 260 520T367 714H397Q320 626 285 514T249 275Q249 151 284 41T396 -158H367Z" />
<glyph unicode=")" horiz-adv-x="600" d="M233 714Q301 630 339 522T378 282Q378 149 340 36T233 -158H203Q280 -69 315 43T351 281Q351 406 316 515T204 714H233Z" />
<glyph unicode="*" horiz-adv-x="600" d="M439 357L323 524L208 358L185 374L307 536L112 594L121 621L313 556L309 758H337L332 556L525 621L533 594L339 537L462 374L439 357Z" />
<glyph unicode="+" horiz-adv-x="600" d="M288 123V341H70V365H288V583H312V365H530V341H312V123H288Z" />
<glyph unicode="," horiz-adv-x="600" d="M248 -129Q263 -80 273 -39T291 40T304 116H332L335 104Q329 76 323 46T308 -14T290 -74T270 -129H248Z" />
<glyph unicode="-" horiz-adv-x="600" d="M150 265V290H450V265H150Z" />
<glyph unicode="." horiz-adv-x="600" d="M300 -12Q282 -12 276 -2T270 23Q270 37 276 47T300 58Q319 58 324 48T330 23Q330 9 325 -1T300 -12Z" />
<glyph unicode="/" horiz-adv-x="600" d="M152 0L420 714H448L180 0H152Z" />
<glyph unicode="0" horiz-adv-x="600" d="M301 -10Q232 -10 184 29T112 150T87 359Q87 467 107 549T175 678T303 725Q385 725 430 679T493 551T512 365Q512 271 500 201T461 83T395 13T301 -10ZM151 87L143 121L446 637L463 617L151 87ZM302 15Q398 15 441 100T485
363Q485 462 470 538T415 657T303 700Q231 700 190 657T132 537T114 360Q114 182 161 99T302 15Z" />
<glyph unicode="1" horiz-adv-x="600" d="M333 563Q333 592 333 614T333 654T334 685Q322 675 311 666T280 642L157 551L141 572L336 714H359V0H333V563ZM200 0V20L333 23H359L486 20V0H200Z" />
<glyph unicode="2" horiz-adv-x="600" d="M109 0V23L333 260Q379 309 406 351T447 439T460 539Q460 614 417 656T298 699Q255 699 210 683T125 635L110 655Q141 680 173 695T237 717T300 724Q357 724 399 702T464 638T487 539Q487 479 473 431T429 338T353 246L145
27V25H521V0H109Z" />
<glyph unicode="3" horiz-adv-x="600" d="M284 -10Q232 -10 184 2T98 32V60Q136 41 185 28T288 15Q389 15 442 63T495 194Q495 254 468 290T392 343T279 359H196V384H279Q330 384 374 401T445 456T473 553Q473 627 429 663T310 699Q260 699 215 682T121 630L106
650Q150 684 200 704T311 724Q368 724 410 704T476 646T500 554Q500 505 482 468T431 407T358 375V373Q411 366 447 344T503 285T522 195Q522 134 495 88T416 16T284 -10Z" />
<glyph unicode="4" horiz-adv-x="600" d="M400 0V195H60V213L394 718H426V219H540V195H426V0H400ZM94 219H400V524Q400 556 400 578T400 618T400 651T401 686H399Q383 659 371 639T337 587L94 219Z" />
<glyph unicode="5" horiz-adv-x="600" d="M276 -10Q227 -10 180 2T104 32V62Q139 41 185 28T278 15Q373 15 425 69T478 217Q478 274 458 315T395 379T288 401Q255 401 219 395T147 378L128 393L158 714H472V689H181L155 406Q169 411 206 418T289 426Q358 426 406
402T480 332T505 219Q505 148 479 97T401 18T276 -10Z" />
<glyph unicode="6" horiz-adv-x="600" d="M312 -10Q249 -10 207 17T139 91T102 199T90 327Q90 431 111 506T169 630T256 702T363 726Q386 726 410 723T455 713V686Q437 693 412 697T362 701Q313 701 268 681T189 616T135 499T115 322H117Q130 351 155 377T220
421T315 439Q408 439 461 381T514 225Q514 157 490 104T421 20T312 -10ZM312 15Q397 15 442 72T487 225Q487 311 445 362T314 414Q256 414 213 391T146 330T122 245Q122 228 126 200T142 140T175 80T230 33T312 15Z" />
<glyph unicode="7" horiz-adv-x="600" d="M213 0L480 689H128V714H510V697L242 0H213Z" />
<glyph unicode="8" horiz-adv-x="600" d="M278 -10Q218 -10 172 13T100 79T74 176Q74 229 96 267T157 334T251 381Q209 398 174 420T118 476T97 558Q97 609 120 646T186 703T287 724Q340 724 381 705T445 650T469 564Q469 497 429 456T314 382Q373 361 412 333T472
268T493 181Q493 120 465 78T387 13T278 -10ZM278 15Q360 15 413 57T466 183Q466 226 449 258T391 317T281 368Q231 350 190 326T125 265T101 176Q101 103 150 59T278 15ZM284 395Q337 416 372 438T424 491T442 565Q442 628 401 663T287 699Q214 699 169 663T124
560Q124 515 143 485T199 434T284 395Z" />
<glyph unicode="9" horiz-adv-x="600" d="M229 -10Q198 -10 170 -7T121 3V31Q139 24 168 20T229 15Q281 15 326 35T405 99T460 215T483 394H481Q467 365 441 338T375 294T280 277Q186 277 135 335T83 491Q83 561 107 613T176 696T287 726Q347 726 389 699T457
627T495 523T507 401Q507 313 494 246T455 130T396 50T319 5T229 -10ZM282 302Q342 302 385 326T452 387T476 458Q476 488 468 529T440 609T382 675T287 701Q201 701 156 645T110 491Q110 403 153 353T282 302Z" />
<glyph unicode=":" horiz-adv-x="600" d="M300 466Q282 466 276 476T270 501Q270 515 276 525T300 536Q319 536 323 526T328 501Q328 487 324 477T300 466ZM300 -12Q282 -12 276 -2T270 23Q270 37 276 47T300 58Q319 58 323 48T328 23Q328 9 324 -1T300 -12Z" />
<glyph unicode=";" horiz-adv-x="600" d="M238 -129Q253 -80 263 -39T281 40T294 116H322L325 104Q319 76 313 46T298 -14T280 -74T260 -129H238ZM310 470Q295 470 290 479T285 501Q285 513 290 522T310 532Q328 532 332 523T337 501Q337 488 333 479T310 470Z" />
<glyph unicode="&lt;" horiz-adv-x="600" d="M529 138L71 353V371L529 586V560L106 362L529 164V138Z" />
<glyph unicode="=" horiz-adv-x="600" d="M70 442V467H530V442H70ZM70 239V264H530V239H70Z" />
<glyph unicode="&gt;" horiz-adv-x="600" d="M71 138V164L494 362L71 560V586L529 371V353L71 138Z" />
<glyph unicode="?" horiz-adv-x="600" d="M238 186Q238 236 245 267T270 323T323 371Q359 397 385 421T426 477T441 554Q441 629 397 664T282 699Q245 699 212 691T142 665L132 691Q176 709 209 716T282 724Q338 724 380 706T445 649T468 554Q468 504 452 469T406
406T336 350Q310 332 294 312T271 262T263 186V174H238V186ZM252 -12Q236 -12 230 -2T224 23Q224 37 230 47T252 58Q272 58 277 48T282 23Q282 9 277 -1T252 -12Z" />
<glyph unicode="@" horiz-adv-x="600" d="M325 -89Q227 -89 158 -42T52 91T15 294Q15 395 37 472T100 604T196 685T318 713Q402 713 462 670T553 546T585 356Q585 305 578 262T557 185T521 133T471 114Q437 114 416 136T390 197H388Q374 157 345 136T279 114Q225
114 196 160T167 287Q167 353 186 404T241 484T328 513Q349 513 373 508T420 493L413 348Q412 330 411 304T409 257Q409 199 422 169T469 139Q500 139 519 167T548 244T558 353Q558 508 498 598T321 688Q239 688 176 642T78 507T42 292Q42 182 75 102T172 -21T323
-64Q367 -64 411 -53T496 -21V-49Q459 -68 415 -78T325 -89ZM282 139Q326 139 352 183T385 323L394 473Q378 481 361 484T328 488Q286 488 256 464T210 395T194 288Q194 218 215 179T282 139Z" />
<glyph unicode="A" horiz-adv-x="600" d="M20 0L288 716H313L580 0H552L334 592Q329 605 323 620T312 650T300 681Q295 666 290 651T279 621T268 592L48 0H20ZM137 271L147 296H456L465 271H137Z" />
<glyph unicode="B" horiz-adv-x="600" d="M115 0V714H280Q411 714 466 671T522 542Q522 481 486 435T381 377V375Q440 366 475 343T525 284T540 203Q540 130 507 85T417 20T286 0H115ZM283 25Q390 25 451 68T513 203Q513 265 486 299T407 348T283 363H141V25H283ZM286
388Q392 388 443 427T495 542Q495 621 443 655T274 689H141V388H286Z" />
<glyph unicode="C" horiz-adv-x="600" d="M364 -10Q266 -10 201 36T103 163T70 349Q70 435 90 504T151 622T249 697T382 724Q423 724 466 716T550 687L540 663Q497 684 456 691T383 699Q314 699 261 675T172 605T116 495T97 349Q97 250 127 175T217 58T368 15Q413
15 457 25T537 48V21Q505 8 461 -1T364 -10Z" />
<glyph unicode="D" horiz-adv-x="600" d="M95 0V714H237Q341 714 409 674T511 556T545 363Q545 245 510 164T404 42T228 0H95ZM217 25Q369 25 443 109T518 362Q518 469 488 541T393 651T227 689H121V25H217Z" />
<glyph unicode="E" horiz-adv-x="600" d="M115 0V714H510V689H141V389H490V364H141V25H510V0H115Z" />
<glyph unicode="F" horiz-adv-x="600" d="M115 0V714H510V689H141V354H491V329H141V0H115Z" />
<glyph unicode="G" horiz-adv-x="600" d="M324 -10Q236 -10 176 32T86 154T55 344Q55 460 88 546T184 679T337 726Q374 726 416 717T497 685L485 662Q444 686 405 693T336 701Q255 701 199 658T112 535T82 343Q82 231 111 158T196 50T326 15Q369 15 408 25T479
52V325H317V350H505V36Q464 13 416 2T324 -10Z" />
<glyph unicode="H" horiz-adv-x="600" d="M95 0V714H121V388H479V714H505V0H479V363H121V0H95Z" />
<glyph unicode="I" horiz-adv-x="600" d="M160 0V20L287 23V690L160 694V714H440V694L313 690V23L440 20V0H160Z" />
<glyph unicode="J" horiz-adv-x="600" d="M255 -15Q212 -15 181 -4T120 27V55Q148 37 179 23T255 9Q307 9 337 31T380 96T394 204V714H420V196Q420 131 405 84T353 11T255 -15Z" />
<glyph unicode="K" horiz-adv-x="600" d="M95 0V714H121V322Q135 338 146 349T172 376L497 714H534L246 417L540 0H510L229 400L121 293V0H95Z" />
<glyph unicode="L" horiz-adv-x="600" d="M150 0V714H176V25H510V0H150Z" />
<glyph unicode="M" horiz-adv-x="600" d="M60 0V714H96L298 235H301L502 714H540V0H514V582Q514 590 514 597T514 612T514 628T514 643T514 658T514 674H512L314 203H286L86 675H84Q85 664 85 655T85 639T86 625T86 612T86 600T86 586V0H60Z" />
<glyph unicode="N" horiz-adv-x="600" d="M95 0V714H122L478 53H480Q480 71 480 89T479 126T479 160T479 191V714H505V0H478L122 665H120Q120 649 120 634T121 602T121 569T121 530V0H95Z" />
<glyph unicode="O" horiz-adv-x="600" d="M301 -10Q235 -10 189 19T113 99T69 217T55 360Q55 474 84 555T168 680T303 724Q364 724 409 698T485 624T530 509T545 360Q545 283 531 216T488 98T413 19T301 -10ZM302 15Q374 15 422 56T494 175T518 358Q518 522 463
610T302 699Q230 699 181 657T106 538T81 358Q81 255 105 178T179 58T302 15Z" />
<glyph unicode="P" horiz-adv-x="600" d="M115 0V714H294Q416 714 478 669T540 516Q540 440 510 394T421 326T280 305H141V0H115ZM278 330Q348 330 400 346T483 403T513 516Q513 608 459 648T290 689H141V330H278Z" />
<glyph unicode="Q" horiz-adv-x="600" d="M467 -170L361 12L387 16L497 -170H467ZM301 -10Q235 -10 189 19T113 99T69 217T55 360Q55 474 84 555T168 680T303 724Q364 724 409 698T485 624T530 509T545 360Q545 283 531 216T488 98T413 19T301 -10ZM302 15Q374
15 422 56T494 175T518 358Q518 522 463 610T302 699Q230 699 181 657T106 538T81 358Q81 255 105 178T179 58T302 15Z" />
<glyph unicode="R" horiz-adv-x="600" d="M115 0V714H276Q355 714 411 697T499 637T530 520Q530 464 512 425T458 363T369 327L565 0H535L344 320H141V0H115ZM307 345Q362 345 406 363T477 420T503 522Q503 617 442 653T271 689H141V345H307Z" />
<glyph unicode="S" horiz-adv-x="600" d="M278 -10Q221 -10 172 0T90 20V48Q131 33 181 24T278 15Q340 15 390 32T469 86T498 180Q498 232 474 261T405 311T297 352Q238 372 193 393T123 449T98 540Q98 604 128 644T211 704T329 724Q372 724 416 716T505 688L494
664Q448 684 406 691T328 699Q276 699 230 684T154 634T125 542Q125 490 149 460T216 412T311 375Q373 355 421 333T497 277T525 181Q525 133 507 97T456 37T378 2T278 -10Z" />
<glyph unicode="T" horiz-adv-x="600" d="M287 0V689H50V714H550V689H313V0H287Z" />
<glyph unicode="U" horiz-adv-x="600" d="M296 -10Q227 -10 183 20T117 109T95 254V714H121V258Q121 178 139 124T197 42T297 15Q357 15 397 41T458 121T479 258V714H505V252Q505 163 481 105T410 19T296 -10Z" />
<glyph unicode="V" horiz-adv-x="600" d="M287 0L40 714H68L265 143Q273 121 279 102T290 66T300 34H301Q306 49 311 66T322 102T336 143L531 714H560L314 0H287Z" />
<glyph unicode="W" horiz-adv-x="600" d="M155 0L40 714H67Q78 644 89 574T110 433T132 293T154 152Q157 133 159 119T163 92T167 70T170 50T173 29H175Q177 44 179 56T184 80T190 110T200 152L285 528H314L398 156Q403 137 406 121T412 91T418 62T424 29H426Q428
43 430 55T434 80T437 105T441 130T445 156Q454 212 462 267T480 379T498 491T515 602T533 714H560L443 0H408L322 388Q317 411 314 426T308 457T301 495H299Q295 473 292 458T285 427T276 388L190 0H155Z" />
<glyph unicode="X" horiz-adv-x="600" d="M50 0L288 372L75 714H106L302 393L502 714H532L316 373L550 0H519L302 352L81 0H50Z" />
<glyph unicode="Y" horiz-adv-x="600" d="M289 0V271L50 714H79L302 294L521 714H550L315 271V0H289Z" />
<glyph unicode="Z" horiz-adv-x="600" d="M115 0V18L450 689H143V714H483V696L148 25H495V0H115Z" />
<glyph unicode="[" horiz-adv-x="600" d="M238 -158V714H438V689H263V-133H438V-158H238Z" />
<glyph unicode="\" horiz-adv-x="600" d="M448 0H420L152 714H180L448 0Z" />
<glyph unicode="]" horiz-adv-x="600" d="M364 714V-158H164V-133H339V689H164V714H364Z" />
<glyph unicode="^" horiz-adv-x="600" d="M61 278L297 719H320L539 278H510L307 686L90 278H61Z" />
<glyph unicode="_" horiz-adv-x="600" d="M0 -110V-85H600V-110H0Z" />
<glyph unicode="`" horiz-adv-x="600" d="M359 606Q339 623 319 642T279 682T242 722T211 759V766H241Q256 745 280 717T331 660T380 612V606H359Z" />
<glyph unicode="a" horiz-adv-x="600" d="M254 -10Q173 -10 132 27T90 128Q90 184 121 219T208 272T341 294L464 300V343Q464 435 425 473T304 512Q267 512 229 503T148 472L139 497Q179 517 220 527T305 537Q398 537 444 493T490 350V0H468L464 103H462Q447 71
419 46T350 5T254 -10ZM256 15Q324 15 370 41T440 114T464 220V275L346 270Q279 267 227 253T146 208T117 128Q117 76 152 46T256 15Z" />
<glyph unicode="b" horiz-adv-x="600" d="M309 -10Q236 -10 193 22T133 104H131L127 0H105V760H131V525Q131 500 131 465T129 398H131Q147 457 197 497T325 537Q375 537 413 519T478 467T517 384T530 273Q530 213 518 162T480 72T411 12T309 -10ZM309 15Q404 15
453 81T503 272Q503 384 459 448T323 512Q227 512 179 446T131 256Q131 137 174 76T309 15Z" />
<glyph unicode="c" horiz-adv-x="600" d="M351 -10Q260 -10 203 25T118 121T90 256Q90 341 123 404T220 502T371 537Q406 537 439 531T500 513L495 487Q465 501 432 506T369 512Q291 512 235 481T148 392T117 257Q117 192 141 137T217 48T351 15Q389 15 428 22T496
42V16Q471 6 433 -2T351 -10Z" />
<glyph unicode="d" horiz-adv-x="600" d="M281 -10Q228 -10 189 7T123 59T83 142T70 254Q70 346 96 409T171 504T289 537Q342 537 378 519T436 472T469 409H471Q470 432 470 454T469 499T469 543V760H495V0H473L471 113H469Q456 78 432 50T371 6T281 -10ZM283
15Q384 15 426 80T469 263V266Q469 346 450 401T391 484T289 512Q198 512 148 448T97 254Q97 135 144 75T283 15Z" />
<glyph unicode="e" horiz-adv-x="600" d="M336 -10Q242 -10 185 25T101 119T75 254Q75 332 101 396T180 499T318 537Q391 537 436 505T503 417T525 291V266H102Q102 187 126 131T201 45T337 15Q386 15 427 24T510 51V23Q470 7 425 -1T336 -10ZM498 291Q498 358
479 407T419 484T318 512Q230 512 172 456T103 291H498Z" />
<glyph unicode="f" horiz-adv-x="600" d="M273 0V503H94V524L273 528V603Q273 655 291 691T347 746T445 765Q471 765 506 761T560 752L556 728Q535 733 505 736T445 740Q371 740 335 708T299 592V528H528V503H299V0H273Z" />
<glyph unicode="g" horiz-adv-x="600" d="M274 -247Q219 -247 176 -236T98 -210V-180Q133 -197 178 -209T276 -222Q382 -222 425 -170T469 -32V17Q469 46 469 70T471 123H469Q450 59 401 25T280 -10Q181 -10 126 57T70 257Q70 388 126 462T292 537Q366 537 405
507T466 432H468L473 528H495V-38Q495 -101 474 -148T404 -221T274 -247ZM283 15Q339 15 375 35T432 89T461 164T469 246V294Q469 355 453 404T399 483T292 512Q192 512 145 445T97 258Q97 139 143 77T283 15Z" />
<glyph unicode="h" horiz-adv-x="600" d="M105 0V760H131V496Q131 472 131 454T129 412H131Q141 445 164 473T226 519T320 537Q404 537 452 491T500 350V0H474V345Q474 433 433 472T319 512Q263 512 221 490T155 421T131 302V0H105Z" />
<glyph unicode="i" horiz-adv-x="600" d="M100 0V21L307 25V503L118 507V528H333V25L530 21V0H100ZM317 660Q298 660 292 671T285 697Q285 711 291 722T317 734Q335 734 341 723T347 697Q347 684 342 672T317 660Z" />
<glyph unicode="j" horiz-adv-x="600" d="M201 -248Q164 -248 128 -240T80 -228V-201Q90 -205 111 -210T156 -218T201 -222Q245 -222 273 -205T316 -156T330 -81V503L141 507V528H356V-88Q356 -169 314 -208T201 -248ZM340 660Q321 660 315 671T308 697Q308 711
314 722T340 734Q358 734 364 723T370 697Q370 684 365 672T340 660Z" />
<glyph unicode="k" horiz-adv-x="600" d="M140 0V760H166V385Q166 353 166 323T166 263T165 201H167Q183 217 199 233T235 269L491 528H525L318 315L545 0H514L300 297L166 169V0H140Z" />
<glyph unicode="l" horiz-adv-x="600" d="M100 0V21L301 25V735L122 739V760H327V25L530 21V0H100Z" />
<glyph unicode="m" horiz-adv-x="600" d="M70 0V527H89L92 430H94Q102 453 114 478T148 520T207 537Q258 537 280 505T308 431H311Q326 476 352 506T427 537Q461 537 485 520T522 469T535 381V0H509V372Q509 424 498 454T468 498T425 512Q392 512 368 491T331
431T317 341V0H291V355Q291 417 280 451T249 498T206 512Q166 512 142 483T107 412T96 328V0H70Z" />
<glyph unicode="n" horiz-adv-x="600" d="M105 0V528H127L130 417H132Q144 448 166 475T227 519T320 537Q404 537 452 492T500 354V0H474V345Q474 433 433 472T319 512Q235 512 183 461T131 302V0H105Z" />
<glyph unicode="o" horiz-adv-x="600" d="M300 -10Q242 -10 199 10T127 68T84 155T70 264Q70 348 98 409T178 504T305 537Q385 537 434 501T507 403T530 267Q530 208 516 158T474 70T403 11T300 -10ZM300 15Q370 15 415 47T481 135T503 265Q503 334 484 390T421
479T305 512Q207 512 152 447T97 263Q97 190 119 134T186 47T300 15Z" />
<glyph unicode="p" horiz-adv-x="600" d="M105 -240V528H127L128 399H131Q142 434 167 465T232 517T328 537Q378 537 415 520T478 469T517 386T530 271Q530 181 505 118T433 23T317 -10Q265 -10 227 7T166 54T131 119H129Q131 85 131 51T131 -15V-240H105ZM317
15Q406 15 454 78T503 272Q503 394 459 453T328 512Q234 512 183 447T131 265V262Q131 135 181 75T317 15Z" />
<glyph unicode="q" horiz-adv-x="600" d="M469 3Q469 19 469 41T470 85T471 124H469Q449 66 403 28T277 -10Q226 -10 187 7T122 59T83 142T70 254Q70 315 82 366T121 456T188 516T286 537Q362 537 406 503T467 422H469L473 528H495V-240H469V3ZM277 15Q374 15
421 81T469 265V275Q469 391 423 451T286 512Q192 512 145 446T97 256Q97 138 141 77T277 15Z" />
<glyph unicode="r" horiz-adv-x="600" d="M100 0V21L274 25V503L118 507V528H300V407H303Q316 461 360 498T473 536Q499 536 525 532T567 523L561 497Q542 503 520 506T472 510Q415 510 377 481T319 399T300 273V25L500 21V0H100Z" />
<glyph unicode="s" horiz-adv-x="600" d="M290 -10Q240 -10 195 1T120 25V54Q160 35 203 25T290 15Q379 15 416 46T453 130Q453 173 433 197T377 235T299 262Q258 275 221 289T161 329T137 404Q137 448 157 477T218 522T315 537Q360 537 398 529T467 508L456 483Q428
497 391 504T315 512Q242 512 203 486T164 405Q164 366 182 345T233 312T308 286Q358 271 397 254T458 209T480 133Q480 89 460 57T398 8T290 -10Z" />
<glyph unicode="t" horiz-adv-x="600" d="M411 -10Q351 -10 317 13T269 78T255 180V503H84V524L254 528L259 659H281V528H498V503H281V183Q281 129 292 92T332 35T411 15Q436 15 455 18T490 28V3Q474 -2 456 -6T411 -10Z" />
<glyph unicode="u" horiz-adv-x="600" d="M281 -10Q192 -10 146 42T100 194V528H126V198Q126 103 166 59T282 15Q337 15 379 38T445 107T469 226V528H495V0H473L470 112H468Q457 82 434 54T374 8T281 -10Z" />
<glyph unicode="v" horiz-adv-x="600" d="M289 0L85 528H113L261 138Q273 107 281 83T299 34H301Q310 59 318 83T338 138L487 528H515L310 0H289Z" />
<glyph unicode="w" horiz-adv-x="600" d="M157 0L25 528H50L144 152Q151 123 155 103T162 68T169 37H171Q176 53 180 68T190 103T205 152L293 432H318L407 152Q416 124 422 104T432 69T441 37H443Q446 53 448 68T455 104T465 152L550 528H575L455 0H432L338 291Q330
317 322 344T306 399H304Q297 371 289 344T273 292L181 0H157Z" />
<glyph unicode="x" horiz-adv-x="600" d="M85 0L283 270L96 528H127L298 288L473 528H503L315 271L515 0H484L299 252L116 0H85Z" />
<glyph unicode="y" horiz-adv-x="600" d="M138 -247Q125 -247 112 -245T85 -237V-211Q99 -216 111 -219T138 -222Q164 -222 182 -211T216 -174T247 -106L288 6L91 528H118L255 163Q272 120 281 95T301 39H303Q310 60 316 77T331 115T351 168L487 528H515L269 -119Q253
-162 235 -190T194 -233T138 -247Z" />
<glyph unicode="z" horiz-adv-x="600" d="M115 0V17L447 503H142V528H485V513L151 25H482V0H115Z" />
<glyph unicode="{" horiz-adv-x="600" d="M440 -158Q380 -158 344 -144T292 -101T276 -26V151Q276 213 251 239T166 266V291Q226 291 251 317T276 408V582Q276 628 292 657T344 700T440 714V689Q388 689 358 678T316 643T303 579V403Q303 353 286 321T224 281V279Q268
270 285 238T303 155V-23Q303 -83 332 -108T440 -133V-158Z" />
<glyph unicode="|" horiz-adv-x="600" d="M287 -240V760H312V-240H287Z" />
<glyph unicode="}" horiz-adv-x="600" d="M160 714Q220 714 256 700T308 657T324 582V405Q324 343 349 317T434 290V265Q374 265 349 239T324 148V-26Q324 -72 308 -101T256 -144T160 -158V-133Q213 -133 242 -122T284 -87T297 -23V153Q297 203 314 235T376 275V277Q332
286 315 319T297 401V579Q297 639 268 664T160 689V714Z" />
<glyph unicode="~" horiz-adv-x="600" d="M84 307Q86 331 91 359T109 411T140 450T190 466Q218 466 240 454T281 424T316 388Q331 371 354 352T406 333Q445 333 463 371T486 466H514Q512 442 507 414T489 362T458 323T408 307Q382 307 361 317T324 341T297 368Q276
394 251 417T192 440Q153 440 135 402T112 307H84Z" />
<glyph unicode="&#xa0;" horiz-adv-x="600" />
<glyph unicode="&#xa1;" horiz-adv-x="600" d="M312 355L314 -185H285L287 355H312ZM301 541Q318 541 323 531T329 506Q329 493 324 482T301 471Q281 471 276 482T271 506Q271 520 276 530T301 541Z" />
<glyph unicode="&#xa2;" horiz-adv-x="600" d="M323 90Q244 94 194 130T119 226T95 361Q95 436 122 495T200 592T323 636V724H348V637Q388 637 418 632T478 614L473 589Q443 603 414 608T355 613Q283 613 231 581T151 492T122 361Q122 293 144 237T214 148T338
115Q374 115 409 122T474 141V116Q451 106 419 99T348 90V-10H323V90Z" />
<glyph unicode="&#xa3;" horiz-adv-x="600" d="M92 23Q133 30 160 50T201 104T215 187V335H108V360H215V516Q215 622 259 672T389 723Q433 723 468 712T531 684L522 660Q488 680 456 689T389 698Q313 698 277 654T241 512V360H420V335H241V178Q241 137 231 107T202
57T161 25H538V0H92V23Z" />
<glyph unicode="&#xa4;" horiz-adv-x="600" d="M432 202Q404 177 370 165T300 153Q264 153 231 165T169 202L91 126L73 144L150 220Q125 249 113 283T100 354Q100 390 111 424T147 486L70 564L88 582L166 504Q195 530 229 542T300 555Q336 555 371 543T435 504L512
581L529 563L452 486Q478 458 489 424T501 354Q501 318 489 284T450 220L528 142L509 124L432 202ZM299 179Q348 179 387 203T451 267T475 356Q475 403 453 442T392 506T303 530Q251 530 211 506T148 442T125 353Q125 304 149 265T213 202T299 179Z" />
<glyph unicode="&#xa5;" horiz-adv-x="600" d="M288 0V162H112V187H288V298H112V323H279L40 714H71L301 336L529 714H560L321 323H489V298H314V187H489V162H314V0H288Z" />
<glyph unicode="&#xa6;" horiz-adv-x="600" d="M287 395V763H312V395H287ZM287 -251V118H312V-251H287Z" />
<glyph unicode="&#xa7;" horiz-adv-x="600" d="M293 -1Q241 -1 197 9T125 32V61Q151 49 178 41T234 28T293 23Q380 23 418 53T457 133Q457 168 436 189T381 225T303 251Q259 264 222 279T164 321T142 395Q142 444 172 475T250 522Q206 538 177 561T148 633Q148
692 195 725T323 759Q368 759 407 751T477 730L466 706Q439 720 400 727T323 735Q253 735 214 710T174 633Q174 599 194 581T246 551T318 527Q361 514 400 499T464 457T489 381Q489 333 463 299T397 244Q434 228 458 203T483 133Q483 72 436 36T293 -1ZM371 255Q413
272 438 305T463 381Q463 418 442 441T382 481T285 511Q236 498 202 471T168 395Q168 356 187 334T239 300T311 274L371 255Z" />
<glyph unicode="&#xa8;" horiz-adv-x="600" d="M398 643Q382 643 377 653T371 678Q371 692 376 702T398 713Q415 713 419 702T424 678Q424 665 420 654T398 643ZM201 643Q185 643 180 653T175 678Q175 693 180 703T201 713Q219 713 223 702T228 678Q228 665 224
654T201 643Z" />
<glyph unicode="&#xa9;" horiz-adv-x="600" d="M296 100Q223 100 165 132T74 223T40 357Q40 436 75 494T169 585T301 618Q376 618 434 584T526 492T560 358Q560 281 525 223T430 133T296 100ZM315 203Q247 203 206 242T164 356Q164 430 205 472T323 515Q345 515
367 511T406 497L398 477Q382 485 362 489T321 493Q258 493 223 457T188 356Q188 291 224 258T321 225Q337 225 355 228T395 239V218Q377 211 358 207T315 203ZM298 123Q367 123 421 153T506 236T537 358Q537 426 507 479T423 564T300 595Q233 595 180 565T95 482T63
359Q63 292 93 239T176 154T298 123Z" />
<glyph unicode="&#xaa;" horiz-adv-x="600" d="M280 393Q234 393 204 415T174 485Q174 518 191 539T241 572T324 585L399 587V618Q399 659 373 679T299 699Q273 699 250 693T204 674L194 696Q217 707 243 714T302 722Q361 722 392 696T423 622V397H402L398 447Q385
425 355 409T280 393ZM284 416Q341 416 370 444T399 522V565L323 563Q260 562 230 543T199 486Q199 450 222 433T284 416Z" />
<glyph unicode="&#xab;" horiz-adv-x="600" d="M442 82L290 267V280L442 467L458 455L321 274L458 93L442 82ZM273 82L121 267V280L273 467L289 455L152 274L289 93L273 82Z" />
<glyph unicode="&#xac;" horiz-adv-x="600" d="M474 132V341H55V365H498V132H474Z" />
<glyph unicode="&#xad;" horiz-adv-x="600" d="M150 265V290H450V265H150Z" />
<glyph unicode="&#xae;" horiz-adv-x="600" d="M296 100Q223 100 165 132T74 223T40 357Q40 436 75 494T169 585T301 618Q376 618 434 584T526 492T560 358Q560 281 525 223T430 133T296 100ZM298 123Q367 123 421 153T506 236T537 358Q537 426 507 479T423 564T300
595Q233 595 180 565T95 482T63 359Q63 292 93 239T176 154T298 123ZM209 190V534H306Q356 534 387 511T419 438Q419 396 398 373T344 340L436 190H409L321 336H231V190H209ZM303 356Q344 356 370 375T396 437Q396 478 371 495T305 512H231V356H303Z" />
<glyph unicode="&#xaf;" horiz-adv-x="600" d="M172 634V658H427V634H172Z" />
<glyph unicode="&#xb0;" horiz-adv-x="600" d="M301 441Q263 441 231 458T179 506T159 582Q159 626 178 657T229 706T300 724Q339 724 371 706T422 656T441 581Q441 538 422 507T372 458T301 441ZM300 464Q348 464 382 496T416 582Q416 635 382 668T298 701Q251
701 218 669T184 583Q184 531 217 498T300 464Z" />
<glyph unicode="&#xb1;" horiz-adv-x="600" d="M288 123V341H70V365H288V583H312V365H530V341H312V123H288ZM70 0V24H530V0H70Z" />
<glyph unicode="&#xb2;" horiz-adv-x="600" d="M157 416V437L280 563Q316 600 342 629T383 684T398 741Q398 780 373 805T299 830Q268 830 241 820T186 789L173 809Q200 832 232 843T299 855Q359 855 392 823T425 741Q425 706 410 677T366 618T297 546L194 441H437V416H157Z"
/>
<glyph unicode="&#xb3;" horiz-adv-x="600" d="M280 412Q246 412 214 419T156 437V465Q186 452 216 445T280 437Q342 437 375 464T408 539Q408 585 378 607T286 630H219V652H286Q339 652 368 677T398 744Q398 784 372 805T297 826Q263 826 234 816T175 788L165
810Q193 829 226 840T298 851Q357 851 390 824T424 746Q424 705 403 679T348 644V642Q392 632 413 606T434 538Q434 478 394 445T280 412Z" />
<glyph unicode="&#xb4;" horiz-adv-x="600" d="M274 612Q297 632 323 660T374 716T413 766H443V759Q426 737 402 710T350 655T295 606H274V612Z" />
<glyph unicode="&#xb5;" horiz-adv-x="600" d="M100 -240V227H126V-240H100ZM281 -10Q192 -10 146 42T100 194V528H126V198Q126 103 166 59T282 15Q337 15 379 38T445 107T469 226V528H495V0H473L470 112H468Q457 82 434 54T374 8T281 -10Z" />
<glyph unicode="&#xb6;" horiz-adv-x="600" d="M280 355Q265 351 252 349T219 346Q171 346 140 373T93 449T77 556Q77 620 94 665T147 735T239 760H483V-127H458V734H305V-127H280V355Z" />
<glyph unicode="&#xb7;" horiz-adv-x="600" d="M300 270Q282 270 276 280T270 305Q270 319 276 329T300 340Q319 340 324 330T330 305Q330 291 325 281T300 270Z" />
<glyph unicode="&#xb8;" horiz-adv-x="600" d="M286 -240Q273 -240 260 -239T235 -234V-210Q248 -214 260 -215T283 -216Q331 -216 355 -198T380 -147Q380 -115 356 -100T277 -85L320 0H346L313 -65Q355 -67 380 -87T405 -146Q405 -189 373 -214T286 -240Z" />
<glyph unicode="&#xb9;" horiz-adv-x="600" d="M297 696Q297 725 297 756T298 815Q281 804 265 796T225 774L178 749L167 771L303 844H323V416H297V696ZM190 416V435L297 440H322L425 435V416H190Z" />
<glyph unicode="&#xba;" horiz-adv-x="600" d="M300 394Q236 394 203 441T170 559Q170 635 206 679T303 724Q348 724 376 702T417 643T431 559Q431 489 399 442T300 394ZM300 418Q353 418 378 458T404 559Q404 597 394 629T361 680T303 700Q254 700 226 662T197
559Q197 498 222 458T300 418Z" />
<glyph unicode="&#xbb;" horiz-adv-x="600" d="M162 447L314 262V249L162 62L146 74L283 255L146 436L162 447ZM331 447L483 262V249L331 62L315 74L452 255L315 436L331 447Z" />
<glyph unicode="&#xbc;" horiz-adv-x="600" d="M96 0L466 714H496L126 0H96ZM40 367V386L129 391H154L240 386V367H40ZM482 0V96H312V114L479 349H507V120H567V96H507V0H482ZM344 120H482V237Q482 261 482 281T483 320Q473 304 467 294T449 268L344 120ZM129 566Q129
595 129 626T130 685Q113 674 98 666T57 644L31 630L20 652L135 714H155V367H129V566Z" />
<glyph unicode="&#xbd;" horiz-adv-x="600" d="M96 0L466 714H496L126 0H96ZM40 367V386L129 391H154L240 386V367H40ZM348 0V21L445 121Q474 151 494 174T526 218T538 263Q538 292 519 311T463 330Q438 330 417 322T374 297L361 317Q383 336 409 345T463 355Q512
355 538 329T565 263Q565 235 553 211T517 162T462 104L385 25H574V0H348ZM129 566Q129 595 129 626T130 685Q113 674 98 666T57 644L31 630L20 652L135 714H155V367H129V566Z" />
<glyph unicode="&#xbe;" horiz-adv-x="600" d="M96 0L466 714H496L126 0H96ZM482 0V96H312V114L479 349H507V120H567V96H507V0H482ZM344 120H482V237Q482 261 482 281T483 320Q473 304 467 294T449 268L344 120ZM125 361Q98 361 72 366T25 382V410Q49 399 73 393T125
386Q173 386 198 408T224 468Q224 504 198 522T117 540H76V562H117Q164 562 190 581T216 634Q216 665 197 681T139 698Q111 698 88 690T42 668L32 690Q55 705 82 714T140 723Q187 723 214 700T242 636Q242 603 224 582T179 554V552Q250 536 250 467Q250 417 217
389T125 361Z" />
<glyph unicode="&#xbf;" horiz-adv-x="600" d="M338 343Q338 294 331 262T306 207T253 158Q217 133 191 108T150 52T135 -25Q135 -100 179 -135T294 -170Q331 -170 364 -162T434 -136L444 -162Q401 -180 368 -187T294 -195Q238 -195 196 -176T131 -120T108 -25Q108
25 124 60T171 124T240 179Q266 197 282 217T305 268T313 343V355H338V343ZM324 541Q341 541 346 531T352 506Q352 493 347 482T324 471Q304 471 299 482T294 506Q294 520 299 530T324 541Z" />
<glyph unicode="&#xc0;" horiz-adv-x="600" d="M20 0L288 716H313L580 0H552L334 592Q329 605 323 620T312 650T300 681Q295 666 290 651T279 621T268 592L48 0H20ZM137 271L147 296H456L465 271H137ZM333 792Q313 809 293 828T253 868T216 908T185 945V952H215Q230
931 254 903T305 846T354 798V792H333Z" />
<glyph unicode="&#xc1;" horiz-adv-x="600" d="M20 0L288 716H313L580 0H552L334 592Q329 605 323 620T312 650T300 681Q295 666 290 651T279 621T268 592L48 0H20ZM137 271L147 296H456L465 271H137ZM255 798Q278 818 304 846T355 902T394 952H424V945Q407 923
383 896T331 841T276 792H255V798Z" />
<glyph unicode="&#xc2;" horiz-adv-x="600" d="M20 0L288 716H313L580 0H552L334 592Q329 605 323 620T312 650T300 681Q295 666 290 651T279 621T268 592L48 0H20ZM137 271L147 296H456L465 271H137ZM174 798Q193 819 215 846T257 901T290 949H312Q324 929 344
902T386 847T426 798V792H405Q377 820 350 854T301 917Q280 889 252 855T195 792H174V798Z" />
<glyph unicode="&#xc3;" horiz-adv-x="600" d="M20 0L288 716H313L580 0H552L334 592Q329 605 323 620T312 650T300 681Q295 666 290 651T279 621T268 592L48 0H20ZM137 271L147 296H456L465 271H137ZM137 804Q139 829 146 847T164 878T191 896T226 902Q251 902
269 891T303 865T335 839T372 827Q394 827 413 841T437 902H462Q458 853 434 828T371 803Q346 803 328 814T294 840T262 866T224 878Q204 878 186 864T162 804H137Z" />
<glyph unicode="&#xc4;" horiz-adv-x="600" d="M20 0L288 716H313L580 0H552L334 592Q329 605 323 620T312 650T300 681Q295 666 290 651T279 621T268 592L48 0H20ZM137 271L147 296H456L465 271H137ZM398 829Q382 829 377 839T371 864Q371 878 376 888T398 899Q415
899 419 888T424 864Q424 851 420 840T398 829ZM201 829Q185 829 180 839T175 864Q175 879 180 889T201 899Q219 899 223 888T228 864Q228 851 224 840T201 829Z" />
<glyph unicode="&#xc5;" horiz-adv-x="600" d="M20 0L288 716H313L580 0H552L334 592Q329 605 323 620T312 650T300 681Q295 666 290 651T279 621T268 592L48 0H20ZM137 271L147 296H456L465 271H137ZM299 797Q259 797 229 822T199 895Q199 942 228 969T299 997Q342
997 371 969T400 896Q400 851 371 824T299 797ZM299 819Q334 819 355 841T376 897Q376 930 356 952T300 975Q265 975 244 953T223 896Q223 862 244 841T299 819Z" />
<glyph unicode="&#xc6;" horiz-adv-x="600" d="M20 0L274 714H585V689H343V389H569V364H343V25H585V0H317V689H290L48 0H20ZM138 275L142 300H336L328 275H138Z" />
<glyph unicode="&#xc7;" horiz-adv-x="600" d="M364 -10Q266 -10 201 36T103 163T70 349Q70 435 90 504T151 622T249 697T382 724Q423 724 466 716T550 687L540 663Q497 684 456 691T383 699Q314 699 261 675T172 605T116 495T97 349Q97 250 127 175T217 58T368
15Q413 15 457 25T537 48V21Q505 8 461 -1T364 -10ZM301 -240Q288 -240 275 -239T250 -234V-210Q263 -214 275 -215T298 -216Q346 -216 370 -198T395 -147Q395 -115 371 -100T292 -85L335 0H361L328 -65Q370 -67 395 -87T420 -146Q420 -189 388 -214T301 -240Z"
/>
<glyph unicode="&#xc8;" horiz-adv-x="600" d="M115 0V714H510V689H141V389H490V364H141V25H510V0H115ZM343 792Q323 809 303 828T263 868T226 908T195 945V952H225Q240 931 264 903T315 846T364 798V792H343Z" />
<glyph unicode="&#xc9;" horiz-adv-x="600" d="M115 0V714H510V689H141V389H490V364H141V25H510V0H115ZM265 798Q288 818 314 846T365 902T404 952H434V945Q417 923 393 896T341 841T286 792H265V798Z" />
<glyph unicode="&#xca;" horiz-adv-x="600" d="M115 0V714H510V689H141V389H490V364H141V25H510V0H115ZM184 798Q203 819 225 846T267 901T300 949H322Q334 929 354 902T396 847T436 798V792H415Q387 820 360 854T311 917Q290 889 262 855T205 792H184V798Z" />
<glyph unicode="&#xcb;" horiz-adv-x="600" d="M115 0V714H510V689H141V389H490V364H141V25H510V0H115ZM408 829Q392 829 387 839T381 864Q381 878 386 888T408 899Q425 899 429 888T434 864Q434 851 430 840T408 829ZM211 829Q195 829 190 839T185 864Q185 879
190 889T211 899Q229 899 233 888T238 864Q238 851 234 840T211 829Z" />
<glyph unicode="&#xcc;" horiz-adv-x="600" d="M160 0V20L287 23V690L160 694V714H440V694L313 690V23L440 20V0H160ZM333 792Q313 809 293 828T253 868T216 908T185 945V952H215Q230 931 254 903T305 846T354 798V792H333Z" />
<glyph unicode="&#xcd;" horiz-adv-x="600" d="M160 0V20L287 23V690L160 694V714H440V694L313 690V23L440 20V0H160ZM255 798Q278 818 304 846T355 902T394 952H424V945Q407 923 383 896T331 841T276 792H255V798Z" />
<glyph unicode="&#xce;" horiz-adv-x="600" d="M160 0V20L287 23V690L160 694V714H440V694L313 690V23L440 20V0H160ZM174 798Q193 819 215 846T257 901T290 949H312Q324 929 344 902T386 847T426 798V792H405Q377 820 350 854T301 917Q280 889 252 855T195 792H174V798Z" />
<glyph unicode="&#xcf;" horiz-adv-x="600" d="M160 0V20L287 23V690L160 694V714H440V694L313 690V23L440 20V0H160ZM398 829Q382 829 377 839T371 864Q371 878 376 888T398 899Q415 899 419 888T424 864Q424 851 420 840T398 829ZM201 829Q185 829 180 839T175
864Q175 879 180 889T201 899Q219 899 223 888T228 864Q228 851 224 840T201 829Z" />
<glyph unicode="&#xd0;" horiz-adv-x="600" d="M0 353V378H275V353H0ZM105 0V714H247Q351 714 419 674T521 556T555 363Q555 245 520 164T414 42T238 0H105ZM227 25Q379 25 453 109T528 362Q528 469 498 541T403 651T237 689H131V25H227Z" />
<glyph unicode="&#xd1;" horiz-adv-x="600" d="M95 0V714H122L478 53H480Q480 71 480 89T479 126T479 160T479 191V714H505V0H478L122 665H120Q120 649 120 634T121 602T121 569T121 530V0H95ZM142 804Q144 829 151 847T169 878T196 896T231 902Q256 902 274 891T308
865T340 839T377 827Q399 827 418 841T442 902H467Q463 853 439 828T376 803Q351 803 333 814T299 840T267 866T229 878Q209 878 191 864T167 804H142Z" />
<glyph unicode="&#xd2;" horiz-adv-x="600" d="M301 -10Q235 -10 189 19T113 99T69 217T55 360Q55 474 84 555T168 680T303 724Q364 724 409 698T485 624T530 509T545 360Q545 283 531 216T488 98T413 19T301 -10ZM302 15Q374 15 422 56T494 175T518 358Q518 522
463 610T302 699Q230 699 181 657T106 538T81 358Q81 255 105 178T179 58T302 15ZM333 792Q313 809 293 828T253 868T216 908T185 945V952H215Q230 931 254 903T305 846T354 798V792H333Z" />
<glyph unicode="&#xd3;" horiz-adv-x="600" d="M301 -10Q235 -10 189 19T113 99T69 217T55 360Q55 474 84 555T168 680T303 724Q364 724 409 698T485 624T530 509T545 360Q545 283 531 216T488 98T413 19T301 -10ZM302 15Q374 15 422 56T494 175T518 358Q518 522
463 610T302 699Q230 699 181 657T106 538T81 358Q81 255 105 178T179 58T302 15ZM255 798Q278 818 304 846T355 902T394 952H424V945Q407 923 383 896T331 841T276 792H255V798Z" />
<glyph unicode="&#xd4;" horiz-adv-x="600" d="M301 -10Q235 -10 189 19T113 99T69 217T55 360Q55 474 84 555T168 680T303 724Q364 724 409 698T485 624T530 509T545 360Q545 283 531 216T488 98T413 19T301 -10ZM302 15Q374 15 422 56T494 175T518 358Q518 522
463 610T302 699Q230 699 181 657T106 538T81 358Q81 255 105 178T179 58T302 15ZM174 798Q193 819 215 846T257 901T290 949H312Q324 929 344 902T386 847T426 798V792H405Q377 820 350 854T301 917Q280 889 252 855T195 792H174V798Z" />
<glyph unicode="&#xd5;" horiz-adv-x="600" d="M301 -10Q235 -10 189 19T113 99T69 217T55 360Q55 474 84 555T168 680T303 724Q364 724 409 698T485 624T530 509T545 360Q545 283 531 216T488 98T413 19T301 -10ZM302 15Q374 15 422 56T494 175T518 358Q518 522
463 610T302 699Q230 699 181 657T106 538T81 358Q81 255 105 178T179 58T302 15ZM137 804Q139 829 146 847T164 878T191 896T226 902Q251 902 269 891T303 865T335 839T372 827Q394 827 413 841T437 902H462Q458 853 434 828T371 803Q346 803 328 814T294 840T262
866T224 878Q204 878 186 864T162 804H137Z" />
<glyph unicode="&#xd6;" horiz-adv-x="600" d="M301 -10Q235 -10 189 19T113 99T69 217T55 360Q55 474 84 555T168 680T303 724Q364 724 409 698T485 624T530 509T545 360Q545 283 531 216T488 98T413 19T301 -10ZM302 15Q374 15 422 56T494 175T518 358Q518 522
463 610T302 699Q230 699 181 657T106 538T81 358Q81 255 105 178T179 58T302 15ZM398 829Q382 829 377 839T371 864Q371 878 376 888T398 899Q415 899 419 888T424 864Q424 851 420 840T398 829ZM201 829Q185 829 180 839T175 864Q175 879 180 889T201 899Q219
899 223 888T228 864Q228 851 224 840T201 829Z" />
<glyph unicode="&#xd7;" horiz-adv-x="600" d="M103 139L86 156L283 353L86 550L103 567L300 370L497 567L514 550L317 353L514 156L497 139L300 336L103 139Z" />
<glyph unicode="&#xd8;" horiz-adv-x="600" d="M91 -28L69 -15L499 737L520 724L91 -28ZM301 -10Q235 -10 189 19T113 99T69 217T55 360Q55 474 84 555T168 680T303 724Q364 724 409 698T485 624T530 509T545 360Q545 283 531 216T488 98T413 19T301 -10ZM302
15Q374 15 422 56T494 175T518 358Q518 522 463 610T302 699Q230 699 181 657T106 538T81 358Q81 255 105 178T179 58T302 15Z" />
<glyph unicode="&#xd9;" horiz-adv-x="600" d="M296 -10Q227 -10 183 20T117 109T95 254V714H121V258Q121 178 139 124T197 42T297 15Q357 15 397 41T458 121T479 258V714H505V252Q505 163 481 105T410 19T296 -10ZM333 792Q313 809 293 828T253 868T216 908T185
945V952H215Q230 931 254 903T305 846T354 798V792H333Z" />
<glyph unicode="&#xda;" horiz-adv-x="600" d="M296 -10Q227 -10 183 20T117 109T95 254V714H121V258Q121 178 139 124T197 42T297 15Q357 15 397 41T458 121T479 258V714H505V252Q505 163 481 105T410 19T296 -10ZM255 798Q278 818 304 846T355 902T394 952H424V945Q407
923 383 896T331 841T276 792H255V798Z" />
<glyph unicode="&#xdb;" horiz-adv-x="600" d="M296 -10Q227 -10 183 20T117 109T95 254V714H121V258Q121 178 139 124T197 42T297 15Q357 15 397 41T458 121T479 258V714H505V252Q505 163 481 105T410 19T296 -10ZM174 798Q193 819 215 846T257 901T290 949H312Q324
929 344 902T386 847T426 798V792H405Q377 820 350 854T301 917Q280 889 252 855T195 792H174V798Z" />
<glyph unicode="&#xdc;" horiz-adv-x="600" d="M296 -10Q227 -10 183 20T117 109T95 254V714H121V258Q121 178 139 124T197 42T297 15Q357 15 397 41T458 121T479 258V714H505V252Q505 163 481 105T410 19T296 -10ZM398 829Q382 829 377 839T371 864Q371 878 376
888T398 899Q415 899 419 888T424 864Q424 851 420 840T398 829ZM201 829Q185 829 180 839T175 864Q175 879 180 889T201 899Q219 899 223 888T228 864Q228 851 224 840T201 829Z" />
<glyph unicode="&#xdd;" horiz-adv-x="600" d="M289 0V271L50 714H79L302 294L521 714H550L315 271V0H289ZM255 798Q278 818 304 846T355 902T394 952H424V945Q407 923 383 896T331 841T276 792H255V798Z" />
<glyph unicode="&#xde;" horiz-adv-x="600" d="M115 0V714H141V572H303Q421 572 480 525T540 372Q540 299 508 253T418 185T278 163H141V0H115ZM274 188Q346 188 400 205T483 262T513 372Q513 465 461 506T296 547H141V188H274Z" />
<glyph unicode="&#xdf;" horiz-adv-x="600" d="M357 -10Q310 -10 280 -2T223 17V45Q256 30 288 23T357 15Q425 15 460 47T496 134Q496 173 484 199T450 244T402 282Q373 303 349 321T310 363T295 420Q295 456 309 478T343 515T384 545T418 581T432 636Q432 684
399 712T302 740Q245 740 208 719T153 657T135 555V0H109V563Q109 628 131 673T196 741T302 765Q353 765 388 749T441 704T459 636Q459 599 445 576T411 537T371 506T336 472T322 420Q322 393 333 374T366 339T416 302Q445 283 469 262T508 211T523 134Q523 96
505 63T450 10T357 -10Z" />
<glyph unicode="&#xe0;" horiz-adv-x="600" d="M254 -10Q173 -10 132 27T90 128Q90 184 121 219T208 272T341 294L464 300V343Q464 435 425 473T304 512Q267 512 229 503T148 472L139 497Q179 517 220 527T305 537Q398 537 444 493T490 350V0H468L464 103H462Q447
71 419 46T350 5T254 -10ZM256 15Q324 15 370 41T440 114T464 220V275L346 270Q279 267 227 253T146 208T117 128Q117 76 152 46T256 15ZM594 606Q574 623 554 642T514 682T477 722T446 759V766H476Q491 745 515 717T566 660T615 612V606H594Z" />
<glyph unicode="&#xe1;" horiz-adv-x="600" d="M254 -10Q173 -10 132 27T90 128Q90 184 121 219T208 272T341 294L464 300V343Q464 435 425 473T304 512Q267 512 229 503T148 472L139 497Q179 517 220 527T305 537Q398 537 444 493T490 350V0H468L464 103H462Q447
71 419 46T350 5T254 -10ZM256 15Q324 15 370 41T440 114T464 220V275L346 270Q279 267 227 253T146 208T117 128Q117 76 152 46T256 15ZM516 612Q539 632 565 660T616 716T655 766H685V759Q668 737 644 710T592 655T537 606H516V612Z" />
<glyph unicode="&#xe2;" horiz-adv-x="600" d="M254 -10Q173 -10 132 27T90 128Q90 184 121 219T208 272T341 294L464 300V343Q464 435 425 473T304 512Q267 512 229 503T148 472L139 497Q179 517 220 527T305 537Q398 537 444 493T490 350V0H468L464 103H462Q447
71 419 46T350 5T254 -10ZM256 15Q324 15 370 41T440 114T464 220V275L346 270Q279 267 227 253T146 208T117 128Q117 76 152 46T256 15ZM179 612Q198 633 220 660T262 715T295 763H317Q329 743 349 716T391 661T431 612V606H410Q382 634 355 668T306 731Q285 703
257 669T200 606H179V612Z" />
<glyph unicode="&#xe3;" horiz-adv-x="600" d="M254 -10Q173 -10 132 27T90 128Q90 184 121 219T208 272T341 294L464 300V343Q464 435 425 473T304 512Q267 512 229 503T148 472L139 497Q179 517 220 527T305 537Q398 537 444 493T490 350V0H468L464 103H462Q447
71 419 46T350 5T254 -10ZM256 15Q324 15 370 41T440 114T464 220V275L346 270Q279 267 227 253T146 208T117 128Q117 76 152 46T256 15ZM142 618Q144 643 151 661T169 692T196 710T231 716Q256 716 274 705T308 679T340 653T377 641Q399 641 418 655T442 716H467Q463
667 439 642T376 617Q351 617 333 628T299 654T267 680T229 692Q209 692 191 678T167 618H142Z" />
<glyph unicode="&#xe4;" horiz-adv-x="600" d="M254 -10Q173 -10 132 27T90 128Q90 184 121 219T208 272T341 294L464 300V343Q464 435 425 473T304 512Q267 512 229 503T148 472L139 497Q179 517 220 527T305 537Q398 537 444 493T490 350V0H468L464 103H462Q447
71 419 46T350 5T254 -10ZM256 15Q324 15 370 41T440 114T464 220V275L346 270Q279 267 227 253T146 208T117 128Q117 76 152 46T256 15ZM403 643Q387 643 382 653T376 678Q376 692 381 702T403 713Q420 713 424 702T429 678Q429 665 425 654T403 643ZM206 643Q190
643 185 653T180 678Q180 693 185 703T206 713Q224 713 228 702T233 678Q233 665 229 654T206 643Z" />
<glyph unicode="&#xe5;" horiz-adv-x="600" d="M254 -10Q173 -10 132 27T90 128Q90 184 121 219T208 272T341 294L464 300V343Q464 435 425 473T304 512Q267 512 229 503T148 472L139 497Q179 517 220 527T305 537Q398 537 444 493T490 350V0H468L464 103H462Q447
71 419 46T350 5T254 -10ZM256 15Q324 15 370 41T440 114T464 220V275L346 270Q279 267 227 253T146 208T117 128Q117 76 152 46T256 15ZM304 611Q264 611 234 636T204 709Q204 756 233 783T304 811Q347 811 376 783T405 710Q405 665 376 638T304 611ZM304 633Q339
633 360 655T381 711Q381 744 361 766T305 789Q270 789 249 767T228 710Q228 676 249 655T304 633Z" />
<glyph unicode="&#xe6;" horiz-adv-x="600" d="M154 -10Q93 -10 63 29T33 128Q33 183 56 217T122 268T225 291L282 296V362Q282 440 254 476T173 512Q150 512 123 505T66 478L56 502Q82 518 112 527T174 537Q232 537 265 503T304 395Q315 460 348 499T435 538Q481
538 509 510T551 429T565 297V270H308Q308 187 324 130T372 44T454 15Q474 15 495 21T547 50V22Q522 5 500 -2T452 -10Q383 -10 348 33T299 141Q289 76 254 33T154 -10ZM154 15Q198 15 226 41T268 110T282 200V271L226 267Q144 261 103 228T61 127Q61 78 84 47T154
15ZM539 295Q539 369 528 417T494 489T434 513Q376 513 345 454T309 295H539Z" />
<glyph unicode="&#xe7;" horiz-adv-x="600" d="M351 -10Q260 -10 203 25T118 121T90 256Q90 341 123 404T220 502T371 537Q406 537 439 531T500 513L495 487Q465 501 432 506T369 512Q291 512 235 481T148 392T117 257Q117 192 141 137T217 48T351 15Q389 15 428
22T496 42V16Q471 6 433 -2T351 -10ZM289 -240Q276 -240 263 -239T238 -234V-210Q251 -214 263 -215T286 -216Q334 -216 358 -198T383 -147Q383 -115 359 -100T280 -85L323 0H349L316 -65Q358 -67 383 -87T408 -146Q408 -189 376 -214T289 -240Z" />
<glyph unicode="&#xe8;" horiz-adv-x="600" d="M336 -10Q242 -10 185 25T101 119T75 254Q75 332 101 396T180 499T318 537Q391 537 436 505T503 417T525 291V266H102Q102 187 126 131T201 45T337 15Q386 15 427 24T510 51V23Q470 7 425 -1T336 -10ZM498 291Q498
358 479 407T419 484T318 512Q230 512 172 456T103 291H498ZM592 606Q572 623 552 642T512 682T475 722T444 759V766H474Q489 745 513 717T564 660T613 612V606H592Z" />
<glyph unicode="&#xe9;" horiz-adv-x="600" d="M336 -10Q242 -10 185 25T101 119T75 254Q75 332 101 396T180 499T318 537Q391 537 436 505T503 417T525 291V266H102Q102 187 126 131T201 45T337 15Q386 15 427 24T510 51V23Q470 7 425 -1T336 -10ZM498 291Q498
358 479 407T419 484T318 512Q230 512 172 456T103 291H498ZM514 612Q537 632 563 660T614 716T653 766H683V759Q666 737 642 710T590 655T535 606H514V612Z" />
<glyph unicode="&#xea;" horiz-adv-x="600" d="M336 -10Q242 -10 185 25T101 119T75 254Q75 332 101 396T180 499T318 537Q391 537 436 505T503 417T525 291V266H102Q102 187 126 131T201 45T337 15Q386 15 427 24T510 51V23Q470 7 425 -1T336 -10ZM498 291Q498
358 479 407T419 484T318 512Q230 512 172 456T103 291H498ZM177 612Q196 633 218 660T260 715T293 763H315Q327 743 347 716T389 661T429 612V606H408Q380 634 353 668T304 731Q283 703 255 669T198 606H177V612Z" />
<glyph unicode="&#xeb;" horiz-adv-x="600" d="M336 -10Q242 -10 185 25T101 119T75 254Q75 332 101 396T180 499T318 537Q391 537 436 505T503 417T525 291V266H102Q102 187 126 131T201 45T337 15Q386 15 427 24T510 51V23Q470 7 425 -1T336 -10ZM498 291Q498
358 479 407T419 484T318 512Q230 512 172 456T103 291H498ZM401 643Q385 643 380 653T374 678Q374 692 379 702T401 713Q418 713 422 702T427 678Q427 665 423 654T401 643ZM204 643Q188 643 183 653T178 678Q178 693 183 703T204 713Q222 713 226 702T231 678Q231
665 227 654T204 643Z" />
<glyph unicode="&#xec;" horiz-adv-x="600" d="M100 0V21L307 25V503L118 507V528H333V25L530 21V0H100ZM589 606Q569 623 549 642T509 682T472 722T441 759V766H471Q486 745 510 717T561 660T610 612V606H589Z" />
<glyph unicode="&#xed;" horiz-adv-x="600" d="M100 0V21L307 25V503L118 507V528H333V25L530 21V0H100ZM511 612Q534 632 560 660T611 716T650 766H680V759Q663 737 639 710T587 655T532 606H511V612Z" />
<glyph unicode="&#xee;" horiz-adv-x="600" d="M100 0V21L307 25V503L118 507V528H333V25L530 21V0H100ZM174 612Q193 633 215 660T257 715T290 763H312Q324 743 344 716T386 661T426 612V606H405Q377 634 350 668T301 731Q280 703 252 669T195 606H174V612Z" />
<glyph unicode="&#xef;" horiz-adv-x="600" d="M100 0V21L307 25V503L118 507V528H333V25L530 21V0H100ZM398 643Q382 643 377 653T371 678Q371 692 376 702T398 713Q415 713 419 702T424 678Q424 665 420 654T398 643ZM201 643Q185 643 180 653T175 678Q175 693
180 703T201 713Q219 713 223 702T228 678Q228 665 224 654T201 643Z" />
<glyph unicode="&#xf0;" horiz-adv-x="600" d="M301 -10Q229 -10 178 19T98 100T70 222Q70 297 101 351T185 435T307 465Q375 465 420 439T491 378H493Q481 440 457 495T397 596T315 677T214 736L227 757Q310 720 367 663T461 539T513 401T530 264Q530 137 473
64T301 -10ZM297 15Q361 15 407 44T478 127T503 252Q503 296 485 339T424 411T312 440Q249 440 201 415T125 341T97 223Q97 156 123 110T195 39T297 15ZM211 578L198 598L453 752L466 731L211 578Z" />
<glyph unicode="&#xf1;" horiz-adv-x="600" d="M105 0V528H127L130 417H132Q144 448 166 475T227 519T320 537Q404 537 452 492T500 354V0H474V345Q474 433 433 472T319 512Q235 512 183 461T131 302V0H105ZM145 618Q147 643 154 661T172 692T199 710T234 716Q259
716 277 705T311 679T343 653T380 641Q402 641 421 655T445 716H470Q466 667 442 642T379 617Q354 617 336 628T302 654T270 680T232 692Q212 692 194 678T170 618H145Z" />
<glyph unicode="&#xf2;" horiz-adv-x="600" d="M300 -10Q242 -10 199 10T127 68T84 155T70 264Q70 348 98 409T178 504T305 537Q385 537 434 501T507 403T530 267Q530 208 516 158T474 70T403 11T300 -10ZM300 15Q370 15 415 47T481 135T503 265Q503 334 484 390T421
479T305 512Q207 512 152 447T97 263Q97 190 119 134T186 47T300 15ZM589 606Q569 623 549 642T509 682T472 722T441 759V766H471Q486 745 510 717T561 660T610 612V606H589Z" />
<glyph unicode="&#xf3;" horiz-adv-x="600" d="M300 -10Q242 -10 199 10T127 68T84 155T70 264Q70 348 98 409T178 504T305 537Q385 537 434 501T507 403T530 267Q530 208 516 158T474 70T403 11T300 -10ZM300 15Q370 15 415 47T481 135T503 265Q503 334 484 390T421
479T305 512Q207 512 152 447T97 263Q97 190 119 134T186 47T300 15ZM511 612Q534 632 560 660T611 716T650 766H680V759Q663 737 639 710T587 655T532 606H511V612Z" />
<glyph unicode="&#xf4;" horiz-adv-x="600" d="M300 -10Q242 -10 199 10T127 68T84 155T70 264Q70 348 98 409T178 504T305 537Q385 537 434 501T507 403T530 267Q530 208 516 158T474 70T403 11T300 -10ZM300 15Q370 15 415 47T481 135T503 265Q503 334 484 390T421
479T305 512Q207 512 152 447T97 263Q97 190 119 134T186 47T300 15ZM174 612Q193 633 215 660T257 715T290 763H312Q324 743 344 716T386 661T426 612V606H405Q377 634 350 668T301 731Q280 703 252 669T195 606H174V612Z" />
<glyph unicode="&#xf5;" horiz-adv-x="600" d="M300 -10Q242 -10 199 10T127 68T84 155T70 264Q70 348 98 409T178 504T305 537Q385 537 434 501T507 403T530 267Q530 208 516 158T474 70T403 11T300 -10ZM300 15Q370 15 415 47T481 135T503 265Q503 334 484 390T421
479T305 512Q207 512 152 447T97 263Q97 190 119 134T186 47T300 15ZM393 618Q395 643 402 661T420 692T447 710T482 716Q507 716 525 705T559 679T591 653T628 641Q650 641 669 655T693 716H718Q714 667 690 642T627 617Q602 617 584 628T550 654T518 680T480
692Q460 692 442 678T418 618H393Z" />
<glyph unicode="&#xf6;" horiz-adv-x="600" d="M300 -10Q242 -10 199 10T127 68T84 155T70 264Q70 348 98 409T178 504T305 537Q385 537 434 501T507 403T530 267Q530 208 516 158T474 70T403 11T300 -10ZM300 15Q370 15 415 47T481 135T503 265Q503 334 484 390T421
479T305 512Q207 512 152 447T97 263Q97 190 119 134T186 47T300 15ZM398 643Q382 643 377 653T371 678Q371 692 376 702T398 713Q415 713 419 702T424 678Q424 665 420 654T398 643ZM201 643Q185 643 180 653T175 678Q175 693 180 703T201 713Q219 713 223 702T228
678Q228 665 224 654T201 643Z" />
<glyph unicode="&#xf7;" horiz-adv-x="600" d="M70 341V365H530V341H70ZM299 144Q284 144 279 153T274 175Q274 187 279 196T299 206Q317 206 321 197T326 175Q326 162 322 153T299 144ZM299 500Q284 500 279 509T274 531Q274 543 279 552T299 562Q317 562 321
553T326 531Q326 518 322 509T299 500Z" />
<glyph unicode="&#xf8;" horiz-adv-x="600" d="M87 -27L68 -11L524 555L543 539L87 -27ZM300 -10Q242 -10 199 10T127 68T84 155T70 264Q70 348 98 409T178 504T305 537Q385 537 434 501T507 403T530 267Q530 208 516 158T474 70T403 11T300 -10ZM300 15Q370 15
415 47T481 135T503 265Q503 334 484 390T421 479T305 512Q207 512 152 447T97 263Q97 190 119 134T186 47T300 15Z" />
<glyph unicode="&#xf9;" horiz-adv-x="600" d="M281 -10Q192 -10 146 42T100 194V528H126V198Q126 103 166 59T282 15Q337 15 379 38T445 107T469 226V528H495V0H473L470 112H468Q457 82 434 54T374 8T281 -10ZM589 606Q569 623 549 642T509 682T472 722T441 759V766H471Q486
745 510 717T561 660T610 612V606H589Z" />
<glyph unicode="&#xfa;" horiz-adv-x="600" d="M281 -10Q192 -10 146 42T100 194V528H126V198Q126 103 166 59T282 15Q337 15 379 38T445 107T469 226V528H495V0H473L470 112H468Q457 82 434 54T374 8T281 -10ZM511 612Q534 632 560 660T611 716T650 766H680V759Q663
737 639 710T587 655T532 606H511V612Z" />
<glyph unicode="&#xfb;" horiz-adv-x="600" d="M281 -10Q192 -10 146 42T100 194V528H126V198Q126 103 166 59T282 15Q337 15 379 38T445 107T469 226V528H495V0H473L470 112H468Q457 82 434 54T374 8T281 -10ZM174 612Q193 633 215 660T257 715T290 763H312Q324
743 344 716T386 661T426 612V606H405Q377 634 350 668T301 731Q280 703 252 669T195 606H174V612Z" />
<glyph unicode="&#xfc;" horiz-adv-x="600" d="M281 -10Q192 -10 146 42T100 194V528H126V198Q126 103 166 59T282 15Q337 15 379 38T445 107T469 226V528H495V0H473L470 112H468Q457 82 434 54T374 8T281 -10ZM398 643Q382 643 377 653T371 678Q371 692 376 702T398
713Q415 713 419 702T424 678Q424 665 420 654T398 643ZM201 643Q185 643 180 653T175 678Q175 693 180 703T201 713Q219 713 223 702T228 678Q228 665 224 654T201 643Z" />
<glyph unicode="&#xfd;" horiz-adv-x="600" d="M138 -247Q125 -247 112 -245T85 -237V-211Q99 -216 111 -219T138 -222Q164 -222 182 -211T216 -174T247 -106L288 6L91 528H118L255 163Q272 120 281 95T301 39H303Q310 60 316 77T331 115T351 168L487 528H515L269
-119Q253 -162 235 -190T194 -233T138 -247ZM511 612Q534 632 560 660T611 716T650 766H680V759Q663 737 639 710T587 655T532 606H511V612Z" />
<glyph unicode="&#xfe;" horiz-adv-x="600" d="M105 -240V714H131V466Q131 450 131 433T128 399H131Q142 434 167 465T232 517T328 537Q378 537 415 520T478 469T517 386T530 271Q530 181 505 118T433 23T317 -10Q265 -10 227 7T166 54T131 119H129Q131 85 131
51T131 -15V-240H105ZM317 15Q406 15 454 78T503 272Q503 394 459 453T328 512Q234 512 183 447T131 265V262Q131 135 181 75T317 15Z" />
<glyph unicode="&#xff;" horiz-adv-x="600" d="M138 -247Q125 -247 112 -245T85 -237V-211Q99 -216 111 -219T138 -222Q164 -222 182 -211T216 -174T247 -106L288 6L91 528H118L255 163Q272 120 281 95T301 39H303Q310 60 316 77T331 115T351 168L487 528H515L269
-119Q253 -162 235 -190T194 -233T138 -247ZM398 643Q382 643 377 653T371 678Q371 692 376 702T398 713Q415 713 419 702T424 678Q424 665 420 654T398 643ZM201 643Q185 643 180 653T175 678Q175 693 180 703T201 713Q219 713 223 702T228 678Q228 665 224 654T201
643Z" />
<glyph unicode="&#x2013;" horiz-adv-x="600" d="M100 265V290H500V265H100Z" />
<glyph unicode="&#x2014;" horiz-adv-x="600" d="M0 265V290H600V265H0Z" />
<glyph unicode="&#x2018;" horiz-adv-x="600" d="M255 478Q261 519 272 560T297 640T327 714H344Q329 679 316 636T294 549T281 469H261L255 478Z" />
<glyph unicode="&#x2019;" horiz-adv-x="600" d="M246 469Q258 495 268 526T286 591T300 655T309 714H329L335 705Q329 664 318 623T293 543T263 469H246Z" />
<glyph unicode="&#x201a;" horiz-adv-x="600" d="M248 -129Q263 -80 273 -39T291 40T304 116H332L335 104Q329 76 323 46T308 -14T290 -74T270 -129H248Z" />
<glyph unicode="&#x201c;" horiz-adv-x="600" d="M442 478Q448 519 459 560T484 640T514 714H531Q516 679 503 636T481 549T468 469H448L442 478ZM324 478Q330 519 341 560T366 640T396 714H413Q398 679 385 636T363 549T350 469H330L324 478Z" />
<glyph unicode="&#x201d;" horiz-adv-x="600" d="M413 705Q407 664 396 623T371 543T341 469H324Q340 504 353 547T375 634T387 714H407L413 705ZM275 705Q269 664 258 623T233 543T203 469H186Q202 504 215 547T237 634T249 714H269L275 705Z" />
<glyph unicode="&#x201e;" horiz-adv-x="600" d="M330 -129Q345 -80 355 -39T373 40T386 116H414L417 104Q411 76 405 46T390 -14T372 -74T352 -129H330ZM452 -129Q467 -80 477 -39T495 40T508 116H536L539 104Q533 76 527 46T512 -14T494 -74T474 -129H452Z" />
<glyph unicode="&#x2022;" horiz-adv-x="600" d="M299 299Q271 299 259 318T246 365Q246 394 258 412T299 431Q318 431 330 422T347 398T353 365Q353 348 348 333T330 308T299 299Z" />
<glyph unicode="&#x2039;" horiz-adv-x="600" d="M368 87L216 272V285L368 472L384 460L247 279L384 98L368 87Z" />
<glyph unicode="&#x203a;" horiz-adv-x="600" d="M232 472L384 287V274L232 87L216 99L353 280L216 461L232 472Z" />
</font>
</defs>
</svg>
